.
Авторизация | Регистрация
» » Бешеные псы / Mad Dogs (2013) HDTVRip 720p от CasStudio скачать через торрент бесплатно




    Бешеные псы / Mad Dogs (2013) HDTVRip 720p от CasStudio скачать через торрент бесплатно

    Опубликовал: Админ | Дата: 27-02-2015, 11:10 | Просмотров: 274



    Детально о кино
    Русское название: Бешеные псы
    Русское название в мировом прокате: Mad Dogs
    Создали в: 2013
    Категория жанра: Детектив, криминал, драма, комедия, триллер
    Главный режиссер: Адриан Шерголд, Джеймс Хоэс
    Актеры: Джон Симм, Марк Уоррен, Макс Бисли, Филип Гленистер, Бен Чаплин, Мария Ботто, Томаш Поцци, Элуиз Джозеф, Тим Вудворд, Дэвид Уорнер, Летисия Долера, Джэми МакЛахлан, Феликс Куберо

    Сюжет фильма:
    Четверо – Квинн, Бакс, Рик и Вуди. И пятый – их гостеприимный, неприлично разбогатевший друг детства, Алви. Майорка, жаркое лето, шикарная вилла и неограниченное количество бабок на развлечения. Идиллическое воссоединение друзей? Приятные полуночные беседы за стаканчиком местного вина? Отрыв по полной на острове удовольствий? А мёртвого козла в бассейн не хотите? Да и гостеприимный хозяин на глазах превращается в такого же козла, только живого… Или погодите…

    MI
    Общее
    Уникальный идентификатор : 216103597649626825861720930853137485683 (0xA29409FA9D4B597AA147A0F817D50F73)
    Полное имя : Mad Dogs Season 3 720p CasStudio.TVMad.Dogs.s03e01.rus.eng.720p.CasStudio.TV.mkv
    Формат : Matroska
    Версия формата : Version 4 / Version 2
    Размер файла : 1,00 Гбайт
    Продолжительность : 43 м.
    Общий поток : 3315 Кбит/сек
    Дата кодирования : UTC 2013-06-13 19:57:22
    Программа кодирования : mkvmerge v6.0.0 (;Coming Up For Air;) built on Jan 20 2013 09:52:00
    Библиотека кодирования : libebml v1.3.0 libmatroska v1.4.0

    Видео
    Идентификатор : 1
    Формат : AVC
    Формат/Информация : Advanced Video Codec
    Профиль формата : High@L4.1
    Параметр CABAC формата : Да
    Параметр ReFrames формата : 5 кадров
    Идентификатор кодека : V_MPEG4/ISO/AVC
    Продолжительность : 43 м.
    Битрейт : 2481 Кбит/сек
    Ширина : 1280 пикселей
    Высота : 720 пикселей
    Соотношение сторон : 16:9
    Режим частоты кадров : Постоянный
    Частота кадров : 25,000 кадров/сек
    Цветовое пространство : YUV
    Субдискретизация насыщенности : 4:2:0
    Битовая глубина : 8 бит
    Тип развёртки : Прогрессивная
    Бит/(Пиксели*Кадры) : 0.108
    Размер потока : 769 Мбайт (75%)
    Библиотека кодирования : x264 core 133 r2334 a3ac64b
    Настройки программы : cabac=1 / ref=5 / deblock=1:0:0 / analyse=0x3:0x113 / me=umh / subme=8 / psy=1 / psy_rd=1.00:0.00 / mixed_ref=1 / me_range=16 / chroma_me=1 / trellis=1 / 8x8dct=1 / cqm=0 / deadzone=21,11 / fast_pskip=1 / chroma_qp_offset=-2 / threads=12 / lookahead_threads=2 / sliced_threads=0 / nr=0 / decimate=1 / interlaced=0 / bluray_compat=0 / constrained_intra=0 / bframes=3 / b_pyramid=2 / b_adapt=2 / b_bias=0 / direct=3 / weightb=1 / open_gop=0 / weightp=2 / keyint=250 / keyint_min=25 / scenecut=40 / intra_refresh=0 / rc_lookahead=50 / rc=crf / mbtree=1 / crf=19.0 / qcomp=0.60 / qpmin=0 / qpmax=69 / qpstep=4 / ip_ratio=1.40 / aq=1:1.00
    Default : Да
    Forced : Нет

    Аудио #1
    Идентификатор : 2
    Формат : AC-3
    Формат/Информация : Audio Coding 3
    Расширение режима : CM (complete main)
    Параметр Endianness формата : Big
    Идентификатор кодека : A_AC3
    Продолжительность : 43 м.
    Вид битрейта : Постоянный
    Битрейт : 384 Кбит/сек
    Каналы : 6 каналов
    Расположение каналов : Front: L C R, Side: L R, LFE
    Частота : 48,0 КГц
    Битовая глубина : 16 бит
    Метод сжатия : С потерями
    Размер потока : 119 Мбайт (12%)
    Язык : Russian
    Default : Да
    Forced : Нет

    Аудио #2
    Идентификатор : 3
    Формат : AC-3
    Формат/Информация : Audio Coding 3
    Расширение режима : CM (complete main)
    Параметр Endianness формата : Big
    Идентификатор кодека : A_AC3
    Продолжительность : 43 м.
    Вид битрейта : Постоянный
    Битрейт : 384 Кбит/сек
    Каналы : 6 каналов
    Расположение каналов : Front: L C R, Side: L R, LFE
    Частота : 48,0 КГц
    Битовая глубина : 16 бит
    Метод сжатия : С потерями
    Размер потока : 119 Мбайт (12%)
    Язык : English
    Default : Нет
    Forced : Нет




    Снималось в: Великобритания
    Время просмотра: 4 x ~ 00:44:00
    Перевод текста: Профессиональный двухголосый закадровый (Кубик в Кубе)

    Файл
    Кодек для видео: MPEG-4 AVC
    Качество фильма: HDTVRip 720p
    Информация о видео: ~ 2481 Кбит/с, 1280x720, 23.976 кадр/с
    Информация о звуке: Русский, английский (AC3, 6 ch, 384 Кбит/с)

    Скриншоты для ознакомления


    Размер скачиваемого торрента: 4.28 GB (4596704026 Bytes)

    Бешеные псы / Mad Dogs (2013) HDTVRip 720p от CasStudio скачать через торрент бесплатно
    загрузка...
    Рейтинг →
     (голосов: 1, оценка 4/5, голосовать можно 1 раз )

    Другие торренты по теме:

  • Бешеные псы / Reservoir Dogs (1992) BDRip 720p торрент скачать бесплатно
  • OST - Бешеные псы / Reservoir Dogs (1992) MP3 торрент скачать бесплатно
  • Бешеные псы / Mad Dogs (2013) HDTVRip | Кубик в Кубе торрент скачать бесплатно
  • Бешеные псы / Reservoir Dogs (1992) BDRip от HQCLUB торрент скачать бесплатно
  • Бешеные псы / Mad Dogs (2013) HDTV 1080i от CasStudio скачать через торрент бесплатно
  • Бешеные псы / Mad Dogs (2013) HDTVRip от CasStudio скачать через торрент бесплатно
  • Прощайте Псы / Бешеные Псы / Reservoir Dogs (1992) BDRip от HQ-ViDEO | A торрент скачать бесплатно
  • Бешеные псы / Reservoir Dogs (1992) BDRip-AVC от 0ptimus | P, P2, P1, A скачать через торрент бесплатно


    • Комментарии (0):

      Информация

      Информация

        Посетители, находящиеся в группе Гости, не могут оставлять комментарии в данной новости.

        ↓ Меню



        ↓ Опрос

        А Вы добавили сайт в закладки?
        Да
        Не


        Top 10 за неделю (Фильмы)