.
Авторизация | Регистрация
» » Неукротимая Анжелика / Indomptable Angelique (1967) BDRip by msltel | D, P торрент скачать бесплатно




    Неукротимая Анжелика / Indomptable Angelique (1967) BDRip by msltel | D, P торрент скачать бесплатно

    Опубликовал: Админ | Дата: 27-02-2015, 11:10 | Просмотров: 518



    Русское название: Неукротимая Анжелика
    Русское название в мировом прокате: Indomptable Ang?lique
    Создали в: 1967
    Категория жанра: Приключения
    Снималось в: Франция, Германия (ФРГ), Италия , CICC, Cin?phonic, Films Borderie, Fono Roma, Francos Films, Gloria-Film GmbH
    Главный режиссер: Бернар Бордери
    Актеры: Мишель Мерсье, Робер Оссейн, Жан Рошфор, Этторе Манни, Бруно Дитрих, Кристиан Роде, Роже Пика, Паскуаль Мартино, Зигхардт Рупп, Ренато Де Кармине, Артуро Доминичи, Мино Доро, Жан-Луи Джемма

    Сюжет фильма: Поиски мужа приводят Анжелику к морскому побережью, где следы Жоффре де Пейрака обрываются… Капитан королевской галеры, пораженный красотой молодой женщины, принуждает ее подняться на борт и сопровождать его в плавании... Экранизация многотомного романа Анн и Сержа Голон Анжелика.

    Качество фильма: BDRip
    Размер скачиваемого торрента: 2.52 ГБ
    Время просмотра: 01:25:15

    Информация о видео: XviD, 1900 Kбит/с, 720x304
    Информация о звуке 1: русский, 48 kHz, AC3, 2 ch, 384 kbps avg, Дублированный, 1 канал НТВ (менее 1 мин.)
    Информация о звуке 2: русский, 48 kHz, AC3, 2 ch, 384 kbps avg, Дублированный, ЦТВ 1 канал (18 мин.) НТВ (менее 1 мин.)
    Информация о звуке 3: русский, 48 kHz, AC3, 2 ch, 384 kbps avg, Профессиональный многоголосый, НТВ

    Внешние файлы
    Информация о звуке: русский, 48 kHz, AC3, 2 ch, 384 kbps avg, Дублированный, ЦТВ HTB (19 мин.)
    Информация о звуке: украинский, 48 kHz, AC3, 2 ch, 384 kbps avg, Профессиональный двухголосый, 1 1
    Информация о звуке: французский, 48 kHz, AC3, 2 ch, 384 kbps avg, Оригинал
    Субтитры: русские

    Исходник: andarmo (Кинозал)

    Сравнение с исходником



    MediaInfo
    Общее
    Полное имя : E:VideoAngelika.4.1966.XviD.BDRipAngelika.4.1966.DUB.rus.ЦТВ НТВ.ac3
    Формат : AC-3
    Формат/Информация : Audio Coding 3
    Размер файла : 234 Мбайт
    Продолжительность : 1 ч. 25 м.
    Режим общего битрейта : Постоянный
    Общий поток : 384 Кбит/сек

    Аудио
    Формат : AC-3
    Формат/Информация : Audio Coding 3
    Расширение режима : CM (complete main)
    Параметр Endianness формата : Big
    Продолжительность : 1 ч. 25 м.
    Вид битрейта : Постоянный
    Битрейт : 384 Кбит/сек
    Каналы : 2 канала
    Расположение каналов : Front: L R
    Частота : 48,0 КГц
    Битовая глубина : 16 бит
    Метод сжатия : С потерями
    Размер потока : 234 Мбайт (100%)

    Общее
    Полное имя : E:VideoAngelika.4.1966.XviD.BDRipAngelika.4.1966.DVO.ukr.1 1.ac3
    Формат : AC-3
    Формат/Информация : Audio Coding 3
    Размер файла : 234 Мбайт
    Продолжительность : 1 ч. 25 м.
    Режим общего битрейта : Постоянный
    Общий поток : 384 Кбит/сек

    Аудио
    Формат : AC-3
    Формат/Информация : Audio Coding 3
    Расширение режима : CM (complete main)
    Параметр Endianness формата : Big
    Продолжительность : 1 ч. 25 м.
    Вид битрейта : Постоянный
    Битрейт : 384 Кбит/сек
    Каналы : 2 канала
    Расположение каналов : Front: L R
    Частота : 48,0 КГц
    Битовая глубина : 16 бит
    Метод сжатия : С потерями
    Размер потока : 234 Мбайт (100%)

    Общее
    Полное имя : E:VideoAngelika.4.1966.XviD.BDRipAngelika.4.1966.Original.fre.ac3
    Формат : AC-3
    Формат/Информация : Audio Coding 3
    Размер файла : 236 Мбайт
    Продолжительность : 1 ч. 25 м.
    Режим общего битрейта : Постоянный
    Общий поток : 384 Кбит/сек

    Аудио
    Формат : AC-3
    Формат/Информация : Audio Coding 3
    Расширение режима : CM (complete main)
    Параметр Endianness формата : Big
    Продолжительность : 1 ч. 25 м.
    Вид битрейта : Постоянный
    Битрейт : 384 Кбит/сек
    Каналы : 2 канала
    Расположение каналов : Front: L R
    Частота : 48,0 КГц
    Битовая глубина : 16 бит
    Метод сжатия : С потерями
    Размер потока : 236 Мбайт (100%)

    Общее
    Полное имя : E:VideoAngelika.4.1966.XviD.BDRipAngelika.4.1966.rus.srt
    Формат : SubRip
    Размер файла : 60,7 Кбайт

    Текст
    Формат : SubRip
    Метод сжатия : Без потерь

    Общее
    Полное имя : E:VideoAngelika.4.1966.XviD.BDRipAngelika.4.1966.XviD.BDRip.avi
    Формат : AVI
    Формат/Информация : Audio Video Interleave
    Размер файла : 1,83 Гбайт
    Продолжительность : 1 ч. 25 м.
    Общий поток : 3071 Кбит/сек
    Программа кодирования : VirtualDubMod 1.5.10.2 (build 2540/release)
    Библиотека кодирования : VirtualDubMod build 2540/release

    Видео
    Идентификатор : 0
    Формат : MPEG-4 Visual
    Профиль формата : Advanced Simple@L5
    Параметр BVOP формата : 1
    Параметр QPel формата : Нет
    Параметр GMC формата : Без точки перехода
    Параметр матрицы формата : Default (H.263)
    Режим смешивания : Сжатый битовый поток
    Идентификатор кодека : XVID
    Идентификатор кодека/Подсказка : XviD
    Продолжительность : 1 ч. 25 м.
    Битрейт : 1900 Кбит/сек
    Ширина : 720 пикселей
    Высота : 304 пикселя
    Соотношение сторон : 2,35:1
    Частота кадров : 24,000 кадра/сек
    Цветовое пространство : YUV
    Субдискретизация насыщенности : 4:2:0
    Битовая глубина : 8 бит
    Тип развёртки : Прогрессивная
    Метод сжатия : С потерями
    Бит/(Пиксели*Кадры) : 0.362
    Размер потока : 1,13 Гбайт (62%)
    Библиотека кодирования : XviD 1.2.1 (UTC 2008-12-04)

    Аудио #1
    Идентификатор : 1
    Формат : AC-3
    Формат/Информация : Audio Coding 3
    Расширение режима : CM (complete main)
    Параметр Endianness формата : Big
    Идентификатор кодека : 2000
    Продолжительность : 1 ч. 25 м.
    Вид битрейта : Постоянный
    Битрейт : 384 Кбит/сек
    Каналы : 2 канала
    Расположение каналов : Front: L R
    Частота : 48,0 КГц
    Битовая глубина : 16 бит
    Метод сжатия : С потерями
    Размер потока : 234 Мбайт (13%)
    Выравнивание : Разделение по промежуткам
    Продолжительность промежутка : 42 мс. (1,00 видеокадр)
    Время предзагрузки промежутка : 500 мс.

    Аудио #2
    Идентификатор : 2
    Формат : AC-3
    Формат/Информация : Audio Coding 3
    Расширение режима : CM (complete main)
    Параметр Endianness формата : Big
    Идентификатор кодека : 2000
    Продолжительность : 1 ч. 25 м.
    Вид битрейта : Постоянный
    Битрейт : 384 Кбит/сек
    Каналы : 2 канала
    Расположение каналов : Front: L R
    Частота : 48,0 КГц
    Битовая глубина : 16 бит
    Метод сжатия : С потерями
    Размер потока : 234 Мбайт (13%)
    Выравнивание : Разделение по промежуткам
    Продолжительность промежутка : 42 мс. (1,00 видеокадр)
    Время предзагрузки промежутка : 500 мс.

    Аудио #3
    Идентификатор : 3
    Формат : AC-3
    Формат/Информация : Audio Coding 3
    Расширение режима : CM (complete main)
    Параметр Endianness формата : Big
    Идентификатор кодека : 2000
    Продолжительность : 1 ч. 25 м.
    Вид битрейта : Постоянный
    Битрейт : 384 Кбит/сек
    Каналы : 2 канала
    Расположение каналов : Front: L R
    Частота : 48,0 КГц
    Битовая глубина : 16 бит
    Метод сжатия : С потерями
    Размер потока : 234 Мбайт (13%)
    Выравнивание : Разделение по промежуткам
    Продолжительность промежутка : 42 мс. (1,00 видеокадр)
    Время предзагрузки промежутка : 500 мс.
    Скриншоты для ознакомления



    Залил: msltel
    Размер скачиваемого торрента: 2.52 GB (2702413478 Bytes)

    Неукротимая Анжелика / Indomptable Angelique (1967) BDRip by msltel | D, P торрент скачать бесплатно
    загрузка...
    Рейтинг →
     (голосов: 1, оценка 5/5, голосовать можно 1 раз )

    Другие торренты по теме:

  • Неукротимая Анжелика / Indomptable Angelique (1967) HDTV 1080i от ClubTorrent | D торрент скачать бесплатно
  • Неукротимая Анжелика / Indomptable Angelique (1967) HDTVRip от Leon-masl скачать через торрент бесплатно
  • Неукротимая Анжелика / Indomptable Angelique (1967) BDRip 720p by msltel | D, P скачать через торрент бесплатно
  • Неукротимая Анжелика / Indomptable Angelique (1967) BDRip 1080p by msltel | D, P торрент скачать бесплатно
  • Неукротимая Анжелика / Indomptable Angelique (1967) BDRip от HQCLUB торрент скачать бесплатно
  • Неукротимая Анжелика / Indomptable Anglique (1967) HDRip от Scarabey | D скачать через торрент бесплатно


    • Комментарии (0):

      Информация

      Информация

        Посетители, находящиеся в группе Гости, не могут оставлять комментарии в данной новости.

        ↓ Меню



        ↓ Опрос

        А Вы добавили сайт в закладки?
        Да
        Не


        Top 10 за неделю (Фильмы)