.
Авторизация | Регистрация
Хочешь лучшие торренты? Добавь свой email!
Добавить
» » Масло в огонь / De lhuile sur le feu (2011) SATRip от MediaClub | P торрент скачать бесплатно




    Масло в огонь / De lhuile sur le feu (2011) SATRip от MediaClub | P торрент скачать бесплатно

    Опубликовал: Админ | Дата: 27-02-2015, 11:10 | Просмотров: 290



    Детально о кино
    Русское название: Масло в огонь
    Русское название в мировом прокате: De l;huile sur le feu
    Создали в: 2011
    Категория жанра: Kомедия
    Главный режиссер: Николас Бенаму
    Актеры: Надер Буссандель, Венсан Лакост, Тиен Шу, Azzedine Benamara, Алис Белаиди, Фатсах Буяхмед, Бан Хэй Мин, Юбай Чжан, Эмир Сегир, Paul Sheng

    Сюжет фильма:
    Это однажды случилось в Бельвиле, два ресторана встали друг против друга: Бербер Кинг семьи Шуффри и Империя дракона семьи Зи. Все шло хорошо, до тех пор пока Самир Шуффри не обвинил месье Зи в том, что он съел его собаку.



    Снималось в: Франция
    Киностудия: Agence Nationale pour la Coh?sion Sociale et l;Egalit? des Chances (ACSE)
    Время просмотра: 01:26:43
    Перевод текста: Профессиональный многоголосый (НТВ )

    Файл
    Кодек для видео: XviD
    Качество фильма: SATRip
    Информация о видео: 1901 Кбит/с, 720x304, 25.000 кадр/с
    Информация о звуке: Русский (АС3, 2 ch, 192 Кбит/с) / Профессиональный многоголосый (НТВ )

    Семпл

    Скриншоты для ознакомления

    MI
    Общее
    Полное имя : Maslo.v.ogon.2011.SATRip.MediaClub.avi
    Формат : AVI
    Формат/Информация : Audio Video Interleave
    Размер файла : 1,27 Гбайт
    Продолжительность : 1 ч. 26 м.
    Общий поток : 2103 Кбит/сек
    Название фильма : MediaClub
    Программа кодирования : VirtualDubMod 1.5.10.2 (build 2540/release)
    Библиотека кодирования : VirtualDubMod build 2540/release

    Видео
    Идентификатор : 0
    Формат : MPEG-4 Visual
    Профиль формата : Advanced Simple@L5
    Параметр BVOP формата : 2
    Параметр QPel формата : Нет
    Параметр GMC формата : Без точки перехода
    Параметр матрицы формата : Default (MPEG)
    Идентификатор кодека : XVID
    Идентификатор кодека/Подсказка : XviD
    Продолжительность : 1 ч. 26 м.
    Битрейт : 1901 Кбит/сек
    Ширина : 720 пикселей
    Высота : 304 пикселя
    Соотношение сторон : 2,35:1
    Частота кадров : 25,000 кадров/сек
    Цветовое пространство : YUV
    Субдискретизация насыщенности : 4:2:0
    Битовая глубина : 8 бит
    Тип развёртки : Прогрессивная
    Метод сжатия : С потерями
    Бит/(Пиксели*Кадры) : 0.347
    Размер потока : 1,15 Гбайт (90%)
    Библиотека кодирования : XviD 65

    Аудио
    Идентификатор : 1
    Формат : AC-3
    Формат/Информация : Audio Coding 3
    Расширение режима : CM (complete main)
    Параметр Endianness формата : Big
    Идентификатор кодека : 2000
    Продолжительность : 1 ч. 26 м.
    Вид битрейта : Постоянный
    Битрейт : 192 Кбит/сек
    Каналы : 2 канала
    Расположение каналов : Front: L R
    Частота : 48,0 КГц
    Битовая глубина : 16 бит
    Метод сжатия : С потерями
    Размер потока : 119 Мбайт (9%)
    Выравнивание : Разделение по промежуткам
    Продолжительность промежутка : 40 мс. (1,00 видеокадр)
    Время предзагрузки промежутка : 500 мс.


    Релиз подготовил:
    Залил: poja
    Размер скачиваемого торрента: 1.27 GB (1363331072 Bytes)

    Масло в огонь / De lhuile sur le feu (2011) SATRip от MediaClub | P торрент скачать бесплатно
    загрузка...
    Рейтинг →
     (голосов: 1, оценка 4/5, голосовать можно 1 раз )

    Другие торренты по теме:

  • Масло в огонь / De lhuile sur le feu (2011) DVB от MediaClub | P скачать через торрент бесплатно
  • Масло в огонь / De lhuile sur le feu / Wok the Kasbah (2011) BDRip 720p от CINEMANIA | НТВ
  • Масло в огонь / De lhuile sur le feu / Wok the Kasbah (2011) BDRip 1080p от CINEMANIA | НТВ
  • Масло в огонь / De lhuile sur le feu (2011) BDRip-AVC | P скачать через торрент бесплатно


    • Комментарии (0):

      Информация

      Информация

        Посетители, находящиеся в группе Гости, не могут оставлять комментарии в данной новости.

        ↓ Меню



        ↓ Опрос

        А Вы добавили сайт в закладки?
        Да
        Не


        Top 10 за месяц (Фильмы)