.
Авторизация | Регистрация
Хочешь лучшие торренты? Добавь свой email!
Добавить
» » Тульпа / Tulpa - Perdizioni mortali (2012) HDRip-AVC | L1 скачать через торрент бесплатно




    Тульпа / Tulpa - Perdizioni mortali (2012) HDRip-AVC | L1 скачать через торрент бесплатно

    Опубликовал: Админ | Дата: 27-02-2015, 11:10 | Просмотров: 220



    Детально о кино
    Русское название: Тульпа
    Русское название в мировом прокате: Tulpa - Perdizioni mortali
    Создали в: 2012
    Категория жанра: ужасы, триллер
    Главный режиссер: Федерико Дзампальоне
    Актеры: Клаудия Джерини, Микела Ческон, Иван Франек, Нуот Аркуинт, Лоренс Белгрейв, Пьерпаоло Ловино, Микеле Плачидо

    Сюжет фильма: Лиза Боери занимает высокую должность в крупной компании. Иногда по вечерам она отправляется в частный закрытый секс-клуб где участвует в групповушках с анонимными партнерами. Неизвестный убийца в черном изощренно убивает троих членов этого клуба. Кто будет следующей жертвой?



    Снималось в: Италия, Italian Dreams Factory
    Время просмотра: 01:28:10
    Перевод текста: Любительский (одноголосный) Вадим Белов

    Файл
    Тип видео: MKV
    Качество фильма: HDRip-AVC Рип с BDRip 1080p
    Информация о видео: 2432 kb/s, 1024x432
    Информация о звуке: Russian/Italian: AC3, 448 kb/s (6 ch)
    Субтитры: Russian, Italian





    MI

    Format : Matroska
    Format version : Version 4 / Version 2
    File size : 2.05 GiB
    Duration : 1h 28mn
    Overall bit rate : 3 323 Kbps
    Encoded date : UTC 2014-01-26 16:55:40
    Writing application : mkvmerge v6.1.0 (;Old Devil;) built on Mar 4 2013 09:10:42
    Writing library : libebml v1.3.0 libmatroska v1.4.0

    Video
    ID : 1
    Format : AVC
    Format/Info : Advanced Video Codec
    Format profile : High@L4.1
    Format settings, CABAC : Yes
    Format settings, ReFrames : 11 frames
    Codec ID : V_MPEG4/ISO/AVC
    Duration : 1h 28mn
    Bit rate : 2 432 Kbps
    Width : 1 024 pixels
    Height : 432 pixels
    Display aspect ratio : 2.40:1
    Frame rate : 23.976 fps
    Color space : YUV
    Chroma subsampling : 4:2:0
    Bit depth : 8 bits
    Scan type : Progressive
    Bits/(Pixel*Frame) : 0.229
    Stream size : 1.45 GiB (71%)
    Writing library : x264 core 130 r2273 b3065e6
    Encoding settings : cabac=1 / ref=11 / deblock=1:-3:-3 / analyse=0x3:0x133 / me=umh / subme=11 / psy=1 / psy_rd=1.00:0.20 / mixed_ref=1 / me_range=48 / chroma_me=1 / trellis=2 / 8x8dct=1 / cqm=0 / deadzone=21,11 / fast_pskip=0 / chroma_qp_offset=-3 / threads=18 / lookahead_threads=3 / sliced_threads=0 / nr=0 / decimate=0 / interlaced=0 / bluray_compat=0 / constrained_intra=0 / bframes=8 / b_pyramid=2 / b_adapt=2 / b_bias=0 / direct=3 / weightb=1 / open_gop=0 / weightp=2 / keyint=250 / keyint_min=23 / scenecut=40 / intra_refresh=0 / rc=2pass / mbtree=0 / bitrate=2432 / ratetol=1.0 / qcomp=0.60 / qpmin=0 / qpmax=69 / qpstep=4 / cplxblur=20.0 / qblur=0.5 / ip_ratio=1.40 / pb_ratio=1.30 / aq=1:1.00
    Language : Italian
    Default : Yes
    Forced : No

    Audio #1
    ID : 2
    Format : AC-3
    Format/Info : Audio Coding 3
    Mode extension : CM (complete main)
    Format settings, Endianness : Big
    Codec ID : A_AC3
    Duration : 1h 28mn
    Bit rate mode : Constant
    Bit rate : 448 Kbps
    Channel(s) : 6 channels
    Channel positions : Front: L C R, Side: L R, LFE
    Sampling rate : 48.0 KHz
    Bit depth : 16 bits
    Compression mode : Lossy
    Stream size : 283 MiB (13%)
    Language : Russian
    Default : Yes
    Forced : No

    Audio #2
    ID : 3
    Format : AC-3
    Format/Info : Audio Coding 3
    Mode extension : CM (complete main)
    Format settings, Endianness : Big
    Codec ID : A_AC3
    Duration : 1h 28mn
    Bit rate mode : Constant
    Bit rate : 448 Kbps
    Channel(s) : 6 channels
    Channel positions : Front: L C R, Side: L R, LFE
    Sampling rate : 48.0 KHz
    Bit depth : 16 bits
    Compression mode : Lossy
    Stream size : 283 MiB (13%)
    Language : Italian
    Default : No
    Forced : No

    Text #1
    ID : 4
    Format : UTF-8
    Codec ID : S_TEXT/UTF8
    Codec ID/Info : UTF-8 Plain Text
    Language : English
    Default : No
    Forced : No

    Text #2
    ID : 5
    Format : UTF-8
    Codec ID : S_TEXT/UTF8
    Codec ID/Info : UTF-8 Plain Text
    Language : Italian
    Default : No
    Forced : No
    Скриншоты для ознакомления

    Размер скачиваемого торрента: 2.05 GB (2197250811 Bytes)

    Тульпа / Tulpa - Perdizioni mortali (2012) HDRip-AVC | L1 скачать через торрент бесплатно
    загрузка...
    Рейтинг →
     (голосов: 1, оценка 3/5, голосовать можно 1 раз )

    Другие торренты по теме:

  • Тульпа / Tulpa - Perdizioni mortali (2012) HDRip | L1 скачать через торрент бесплатно
  • Тульпа / Tulpa - Perdizioni mortali (2012) BDRip 720p от CINEMANIA | L1 скачать через торрент бесплатно
  • Тульпа / Tulpa - Perdizioni mortali (2012) BDRip 1080p от CINEMANIA | L1 скачать через торрент бесплатно
  • Тульпа: Игры Воображения / Tulpa: Imagination Games (2014) PC скачать через торрент бесплатно


    • Комментарии (0):

      Информация

      Информация

        Посетители, находящиеся в группе Гости, не могут оставлять комментарии в данной новости.

        ↓ Меню



        ↓ Опрос

        А Вы добавили сайт в закладки?
        Да
        Не


        Top 10 за месяц (Фильмы)