.
Авторизация | Регистрация
Хочешь лучшие торренты? Добавь свой email!
Добавить
» » Любовь с подходящим незнакомцем / Love with the Proper Stranger (1963) VODRip | A скачать через торрент бесплатно




    Любовь с подходящим незнакомцем / Love with the Proper Stranger (1963) VODRip | A скачать через торрент бесплатно

    Опубликовал: Админ | Дата: 27-02-2015, 11:10 | Просмотров: 176

    Любовь с подходящим незнакомцем / Love with the Proper Stranger

    Русское название: Любовь с подходящим незнакомцем
    Русское название в мировом прокате: Love with the Proper Stranger
    Создали в: 1963
    Категория жанра: Драма, мелодрама, комедия


    Главный режиссер: Роберт Маллиган

    Актеры: Натали Вуд, Стив МакКуин, Эди Адамс, Хершел Бернарди, Энн Хегира, Харви Лембек, Марио Бадолати, Пенни Сантон, Елена Карам, Вирджиния Винсент


    Сюжет фильма:
    Продавщица-итальянка Энджи Россини внезапно узнает, что беременна от музыканта Рокки Папасано, с которым у нее был мимолетный роман. Энджи находит Рокки и сообщает ему о своем положении, упоминая про то, что ей нужен доктор для аборта. Рокки находит врача, и они с Энджи начинают усиленно работать, чтобы оплатить его услуги. Но судьба изменяет намеченный сценарий и дает шанс этим малознакомым людям обрести свою любовь, пока не стало еще слишком поздно.





    Снималось в: США, Paramount Pictures, Boardwalk-Rona Productions, Pakula-Mulligan
    Время просмотра: 01:40:14
    Перевод текста: Авторский (Юрий Сербин)


    Качество фильма: VODRip
    Информация о видео: XviD, 1646 Кбит/с, 688x528, 23.976 кадр/с
    Информация о звуке: Русский, английский (AC3, 2 ch, 256 Кбит/с)
    Субтитры: Русские, английские


    Скриншоты для ознакомления




    MediaInfo
    Общее
    Полное имя : E:Love with the Proper StrangerLove.with.the.Proper.Stranger.1963.A.XviD.VODRip.avi
    Формат : AVI
    Формат/Информация : Audio Video Interleave
    Размер файла : 1,52 Гбайт
    Продолжительность : 1 ч. 40 м.
    Общий поток : 2172 Кбит/сек
    Программа кодирования : VirtualDubModRus 1.5.10.2 (build 2542/release)
    Библиотека кодирования : VirtualDubMod build 2542/release

    Видео
    Идентификатор : 0
    Формат : MPEG-4 Visual
    Профиль формата : Advanced Simple@L5
    Параметр BVOP формата : 2
    Параметр QPel формата : Нет
    Параметр GMC формата : Без точки перехода
    Параметр матрицы формата : Default (MPEG)
    Идентификатор кодека : XVID
    Идентификатор кодека/Подсказка : XviD
    Продолжительность : 1 ч. 40 м.
    Битрейт : 1646 Кбит/сек
    Ширина : 688 пикселей
    Высота : 528 пикселей
    Соотношение сторон : 4:3
    Частота кадров : 23,976 кадра/сек
    Цветовое пространство : YUV
    Субдискретизация насыщенности : 4:2:0
    Битовая глубина : 8 бит
    Тип развёртки : Прогрессивная
    Метод сжатия : С потерями
    Бит/(Пиксели*Кадры) : 0.189
    Размер потока : 1,15 Гбайт (76%)
    Библиотека кодирования : XviD 65

    Аудио #1
    Идентификатор : 1
    Формат : AC-3
    Формат/Информация : Audio Coding 3
    Расширение режима : CM (complete main)
    Параметр Endianness формата : Big
    Идентификатор кодека : 2000
    Продолжительность : 1 ч. 40 м.
    Вид битрейта : Постоянный
    Битрейт : 256 Кбит/сек
    Каналы : 2 канала
    Расположение каналов : Front: L R
    Частота : 48,0 КГц
    Битовая глубина : 16 бит
    Метод сжатия : С потерями
    Размер потока : 184 Мбайт (12%)
    Выравнивание : Разделение по промежуткам
    Продолжительность промежутка : 42 мс. (1,00 видеокадр)
    Время предзагрузки промежутка : 500 мс.

    Аудио #2
    Идентификатор : 2
    Формат : AC-3
    Формат/Информация : Audio Coding 3
    Расширение режима : CM (complete main)
    Параметр Endianness формата : Big
    Идентификатор кодека : 2000
    Продолжительность : 1 ч. 40 м.
    Вид битрейта : Постоянный
    Битрейт : 256 Кбит/сек
    Каналы : 2 канала
    Расположение каналов : Front: L R
    Частота : 48,0 КГц
    Битовая глубина : 16 бит
    Метод сжатия : С потерями
    Размер потока : 184 Мбайт (12%)
    Выравнивание : Разделение по промежуткам
    Продолжительность промежутка : 42 мс. (1,00 видеокадр)
    Время предзагрузки промежутка : 500 мс.

    Размер скачиваемого торрента: 1.52 GB (1633108759 Bytes)

    Любовь с подходящим незнакомцем / Love with the Proper Stranger (1963) VODRip | A скачать через торрент бесплатно
    загрузка...
    Рейтинг →
     (голосов: 1, оценка 5/5, голосовать можно 1 раз )

    Другие торренты по теме:

  • Любовь с мертвецом / In Love With The Dead / Chung Oi (2007) DVDRip
  • Любовь с уведомлением / Two Weeks Notice (2002) DVD9 от Youtracker | D | Лицензия
  • Любовь с препятствиями / Un bonheur narrive jamais seul (2012) BDRip 1080p от NoLimits-Team
  • Любовь с оружием (2012) DVB
  • Пусть говорят Первая любовь с продолжением (2013) HDTVRip от MediaClub
  • Любовь с испытательным сроком (2013) HDTVRip от MediaClub скачать через торрент бесплатно
  • Любовь с уведомлением / Two Weeks Notice (2002) HDTVRip от Scarabey | D скачать через торрент бесплатно
  • Любовь с оружием (2012) WEB-DL 720p


    • Комментарии (0):

      Информация

      Информация

        Посетители, находящиеся в группе Гости, не могут оставлять комментарии в данной новости.

        ↓ Меню



        ↓ Опрос

        А Вы добавили сайт в закладки?
        Да
        Не


        Top 10 за месяц (Фильмы)