.
Авторизация | Регистрация
» » Пуля для незнакомца / Gli fumavano le Colt... lo chiamavano Camposanto (1971) DVD9 скачать через торрент бесплатно




    Пуля для незнакомца / Gli fumavano le Colt... lo chiamavano Camposanto (1971) DVD9 скачать через торрент бесплатно

    Опубликовал: Админ | Дата: 27-02-2015, 11:10 | Просмотров: 291



    Детально о кино
    Русское название: Пуля для незнакомца
    Русское название в мировом прокате: Gli fumavano le Colt... lo chiamavano Camposanto
    Создали в: 1971
    Категория жанра: Вестерн
    Главный режиссер: Джулиано Карнимэо

    Актеры: Джанни Гарко, Вильям Бергер, Крис Читтел, Джон Фордайс, Уго Фангареджи, Раймондо Пенне, Франко Рессель, Альдо Барберито, Ивано Стацциоли, Нелло Паццафини, Джованни Ди Бенедетто, Уго Адинолфи, Жильдо Ди Марко, Билл Вэндерс

    Сюжет фильма: Два брата-ирландца, едут домой, к отцу, на Дикий Запад. По прибытии, они знакомятся с таинственной бандой в масках, которая держит в страхе округу и занимается грабежом и вымогательством местных фермеров. Братьям, в борьбе с бандитами поможет стрелок, которого все называют Могильщиком, ну а бандиты наймут его старого друга — Герцога.

    Снималось в: Италия
    Киностудия: Flora Film, National Cinematografica
    Время просмотра: 01:29:57
    Перевод текста: Любительский одноголосый
    Субтитры: Английские, немецкие



    Файл
    Кодек для видео: MPEG-2
    Качество фильма: DVD-9
    Информация о видео: PAL 16:9 (720x576) VBR
    Информация о звуке: Русский, немецкий, итальянский (Dolby AC3, 2 ch)


    Меню


    DVDInfo
    Title: Локальный диск
    Size: 7.31 Gb ( 7 660 782 KBytes ) - DVD-9
    Enabled regions: 1, 2, 3, 4, 5, 6, 7, 8

    VTS_01 :
    Play Length: 01:29:57
    Video: PAL 16:9 (720x576) VBR, Auto PanScan
    Audio:
    Deutsch (Dolby AC3, 2 ch)
    Italiano (Dolby AC3, 2 ch)
    Russian (Dolby AC3, 2 ch)
    Subtitles:
    Deutsch
    Deutsch
    English

    VTS_02 :
    Play Length: 00:25:23
    Video: PAL 4:3 (720x576) VBR
    Audio:
    Italiano (Dolby AC3, 2 ch)
    Subtitles:
    Deutsch
    English

    VTS_03 :
    Play Length:
    Video: PAL 16:9 (720x576) VBR, Auto PanScan

    VTS_04 :
    Play Length: 00:03:32
    Video: PAL 16:9 (720x576) VBR, Auto PanScan
    Audio:
    Italiano (Dolby AC3, 2 ch)

    Menu Video:
    PAL 4:3 (720x576) VBR
    Menu Audio:
    Not specified (Dolby AC3, 6 ch)
    Menu Subtitles:
    Not specified
    Menu Deutsch Language Unit :
    Root Menu




    MediaInfo
    Общее
    Полное имя : D:1АААGLI_FUMAVANO_LE_COLT_1971VIDEO_TSVTS_01_1.VOB
    Формат : MPEG-PS
    Размер файла : 1024 Мбайт
    Продолжительность : 16 м.
    Режим общего битрейта : Переменный
    Общий поток : 8571 Кбит/сек

    Видео
    Идентификатор : 224 (0xE0)
    Формат : MPEG Video
    Версия формата : Version 2
    Профиль формата : Main@Main
    Параметр BVOP формата : Да
    Параметр матрицы формата : Выборочная
    Параметр GOP формата : M=3, N=12
    Продолжительность : 16 м.
    Вид битрейта : Переменный
    Битрейт : 7824 Кбит/сек
    Максимальный битрейт : 9500 Кбит/сек
    Ширина : 720 пикселей
    Высота : 576 пикселей
    Соотношение сторон : 16:9
    Частота кадров : 25,000 кадров/сек
    Стандарт вещания : PAL
    Цветовое пространство : YUV
    Субдискретизация насыщенности : 4:2:0
    Битовая глубина : 8 бит
    Тип развёртки : Чересстрочная
    Порядок развёртки : Верхнее поле первое
    Метод сжатия : С потерями
    Бит/(Пиксели*Кадры) : 0.755
    TimeCode_FirstFrame : 00:00:58:00
    TimeCode_Source : Group of pictures t_head
    Размер потока : 935 Мбайт (91%)

    Аудио #1
    Идентификатор : 189 (0xBD)-128 (0x80)
    Формат : AC-3
    Формат/Информация : Audio Coding 3
    Расширение режима : CM (complete main)
    Параметр Endianness формата : Big
    Режим смешивания : DVD-Video
    Продолжительность : 16 м.
    Вид битрейта : Постоянный
    Битрейт : 192 Кбит/сек
    Каналы : 2 канала
    Расположение каналов : Front: L R
    Частота : 48,0 КГц
    Битовая глубина : 16 бит
    Метод сжатия : С потерями
    Задержка видео : -80 мс.
    Размер потока : 22,9 Мбайт (2%)

    Аудио #2
    Идентификатор : 189 (0xBD)-129 (0x81)
    Формат : AC-3
    Формат/Информация : Audio Coding 3
    Расширение режима : CM (complete main)
    Параметр Endianness формата : Big
    Режим смешивания : DVD-Video
    Продолжительность : 16 м.
    Вид битрейта : Постоянный
    Битрейт : 192 Кбит/сек
    Каналы : 2 канала
    Расположение каналов : Front: L R
    Частота : 48,0 КГц
    Битовая глубина : 16 бит
    Метод сжатия : С потерями
    Задержка видео : -80 мс.
    Размер потока : 22,9 Мбайт (2%)

    Аудио #3
    Идентификатор : 189 (0xBD)-130 (0x82)
    Формат : AC-3
    Формат/Информация : Audio Coding 3
    Расширение режима : CM (complete main)
    Параметр Endianness формата : Big
    Режим смешивания : DVD-Video
    Продолжительность : 16 м.
    Вид битрейта : Постоянный
    Битрейт : 192 Кбит/сек
    Каналы : 2 канала
    Расположение каналов : Front: L R
    Частота : 48,0 КГц
    Битовая глубина : 16 бит
    Метод сжатия : С потерями
    Задержка видео : -80 мс.
    Размер потока : 22,9 Мбайт (2%)

    Текст #1
    Идентификатор : 189 (0xBD)-32 (0x20)
    Формат : RLE
    Формат/Информация : Run-length encoding
    Режим смешивания : DVD-Video

    Текст #2
    Идентификатор : 189 (0xBD)-34 (0x22)
    Формат : RLE
    Формат/Информация : Run-length encoding
    Режим смешивания : DVD-Video

    Меню




    Скриншоты для ознакомления

    Залил: YArl
    Размер скачиваемого торрента: 7.31 GB (7844640768 Bytes)

    Пуля для незнакомца / Gli fumavano le Colt... lo chiamavano Camposanto (1971) DVD9 скачать через торрент бесплатно
    загрузка...
    Рейтинг →
     (голосов: 1, оценка 5/5, голосовать можно 1 раз )

    Другие торренты по теме:

  • Пуля для генерала / El chuncho, quien sabe (1966) BDRip-AVC от Rulya74 торрент скачать бесплатно
  • Пуля для незнакомца / Gli fumavano le Colt... lo chiamavano Camposanto (1971) DVDRip от NovaLan скачать через торрент бесплатно
  • Wolfschanze 1944: Пуля для фюрера (2006) PC | Лицензия торрент скачать бесплатно
  • Пуля для генерала (Золотая пуля, Эль Чунчо, кто его знает) / A Bullet for the General / 1966 / 2 x ДБ, 4 х ПМ, ПО, СТ / Blu-Ray (1080p) скачать торрент бесплатно
  • Пуля для генерала / A Bullet for the General / 1966 / ДБ, 3 х ПМ, ПО / BDRip (1080p) скачать торрент бесплатно
  • Пуля для негодяя / Bullet for a Badman (1964) DVDRip-AVC | A скачать торрент бесплатно


    • Комментарии (0):

      Информация

      Информация

        Посетители, находящиеся в группе Гости, не могут оставлять комментарии в данной новости.

        ↓ Меню



        ↓ Опрос

        А Вы добавили сайт в закладки?
        Да
        Не


        Top 10 за неделю (Фильмы)