.
Авторизация | Регистрация
Хочешь лучшие торренты? Добавь свой email!
Добавить
» » Пуля для незнакомца / Gli fumavano le Colt... lo chiamavano Camposanto (1971) DVDRip от NovaLan скачать через торрент бесплатно




    Пуля для незнакомца / Gli fumavano le Colt... lo chiamavano Camposanto (1971) DVDRip от NovaLan скачать через торрент бесплатно

    Опубликовал: Админ | Дата: 27-02-2015, 11:10 | Просмотров: 473




    Снималось в: Италия
    Создали в: Flora Film, National Cinematografica
    Категория жанра: Вестерн
    Создали в: 1971

    Время просмотра: 01:29:57


    Перевод текста: Любительский одноголосый

    Оригинальная аудиодорожка: Немецкая

    Главный режиссер: Джулиано Карнимэо


    Актеры: Джанни Гарко, Вильям Бергер, Крис Читтел, Джон Фордайс, Уго Фангареджи, Раймондо Пенне, Франко Рессель, Альдо Барберито, Ивано Стацциоли, Нелло Паццафини, Джованни Ди Бенедетто, Уго Адинолфи, Жильдо Ди Марко, Билл Вэндерс


    Сюжет: Два брата-ирландца, едут домой, к отцу, на Дикий Запад. По прибытии, они знакомятся с таинственной бандой в масках, которая держит в страхе округу и занимается грабежом и вымогательством местных фермеров. Братьям, в борьбе с бандитами поможет стрелок, которого все называют Могильщиком, ну а бандиты наймут его старого друга — Герцога.



    Исходник: DVD9 R1

    Тип релиза: DVDRip

    Контейнер: AVI


    Информация о видео: 704x304 (2.32:1), 23.976 fps, XviD ~1924 kbps avg, 0.38 bit/pixel
    Информация о звуке: #1: 48 kHz, AC3 2.0 ~192.00 kbps avg (RUS)
    Информация о звуке: #2: 48 kHz, AC3 2.0 ~192.00 kbps avg (DEUTSCH)



    MediaInfo
    Общее
    Полное имя : D:1АААПуля для незнакомца.avi
    Формат : AVI
    Формат/Информация : Audio Video Interleave
    Размер файла : 1,46 Гбайт
    Продолжительность : 1 ч. 29 м.
    Общий поток : 2324 Кбит/сек
    Программа кодирования : VirtualDubMod 1.5.10.2 (build 2540/release)
    Библиотека кодирования : VirtualDubMod build 2540/release

    Видео
    Идентификатор : 0
    Формат : MPEG-4 Visual
    Профиль формата : Advanced Simple@L5
    Параметр BVOP формата : 2
    Параметр QPel формата : Нет
    Параметр GMC формата : Без точки перехода
    Параметр матрицы формата : Default (MPEG)
    Режим смешивания : Сжатый битовый поток
    Идентификатор кодека : XVID
    Идентификатор кодека/Подсказка : XviD
    Продолжительность : 1 ч. 29 м.
    Битрейт : 1925 Кбит/сек
    Ширина : 704 пикселя
    Высота : 304 пикселя
    Соотношение сторон : 2,35:1
    Частота кадров : 23,976 кадра/сек
    Цветовое пространство : YUV
    Субдискретизация насыщенности : 4:2:0
    Битовая глубина : 8 бит
    Тип развёртки : Прогрессивная
    Метод сжатия : С потерями
    Бит/(Пиксели*Кадры) : 0.375
    Размер потока : 1,21 Гбайт (83%)
    Библиотека кодирования : XviD 1.2.1 (UTC 2008-12-04)

    Аудио #1
    Идентификатор : 1
    Формат : AC-3
    Формат/Информация : Audio Coding 3
    Расширение режима : CM (complete main)
    Параметр Endianness формата : Big
    Идентификатор кодека : 2000
    Продолжительность : 1 ч. 29 м.
    Вид битрейта : Постоянный
    Битрейт : 192 Кбит/сек
    Каналы : 2 канала
    Расположение каналов : Front: L R
    Частота : 48,0 КГц
    Битовая глубина : 16 бит
    Метод сжатия : С потерями
    Размер потока : 124 Мбайт (8%)
    Выравнивание : Разделение по промежуткам
    Продолжительность промежутка : 42 мс. (1,00 видеокадр)
    Время предзагрузки промежутка : 500 мс.

    Аудио #2
    Идентификатор : 2
    Формат : AC-3
    Формат/Информация : Audio Coding 3
    Расширение режима : CM (complete main)
    Параметр Endianness формата : Big
    Идентификатор кодека : 2000
    Продолжительность : 1 ч. 29 м.
    Вид битрейта : Постоянный
    Битрейт : 192 Кбит/сек
    Каналы : 2 канала
    Расположение каналов : Front: L R
    Частота : 48,0 КГц
    Битовая глубина : 16 бит
    Метод сжатия : С потерями
    Размер потока : 124 Мбайт (8%)
    Выравнивание : Разделение по промежуткам
    Продолжительность промежутка : 42 мс. (1,00 видеокадр)
    Время предзагрузки промежутка : 500 мс.







    Скриншоты для ознакомления




    Релиз группа:

    Автор рипа:
    Залил: YArl
    Размер скачиваемого торрента: 1.46 GB (1567508480 Bytes)

    Пуля для незнакомца / Gli fumavano le Colt... lo chiamavano Camposanto (1971) DVDRip от NovaLan скачать через торрент бесплатно
    загрузка...
    Рейтинг →
     (голосов: 1, оценка 3/5, голосовать можно 1 раз )

    Другие торренты по теме:

  • Пуля для генерала (Золотая пуля, Эль Чунчо, кто его знает) / A Bullet for the General / 1966 / 2 x ДБ, 4 х ПМ, ПО, СТ / Blu-Ray (1080p)
  • Пуля для генерала / El chuncho, quien sabe (1966) BDRip-AVC от Rulya74
  • Пуля для незнакомца / Gli fumavano le Colt... lo chiamavano Camposanto (1971) DVD9 скачать через торрент бесплатно
  • Wolfschanze 1944: Пуля для фюрера (2006) PC | Лицензия
  • Пуля для генерала / A Bullet for the General / 1966 / ДБ, 3 х ПМ, ПО / BDRip (1080p)
  • Пуля для негодяя / Bullet for a Badman (1964) DVDRip-AVC | A


    • Комментарии (0):

      Информация

      Информация

        Посетители, находящиеся в группе Гости, не могут оставлять комментарии в данной новости.

        ↓ Меню



        ↓ Опрос

        А Вы добавили сайт в закладки?
        Да
        Не


        Top 10 за месяц (Фильмы)