.
Авторизация | Регистрация
» » Папаши / Les compres (1983) HDTVRip от New-Team скачать через торрент бесплатно




    Папаши / Les compres (1983) HDTVRip от New-Team скачать через торрент бесплатно

    Опубликовал: Админ | Дата: 27-02-2015, 11:10 | Просмотров: 266


    Снималось в: Франция
    Создали в: DD Productions, EFVE, Fideline Films
    Категория жанра: комедия, криминал
    Создали в: 1983
    Время просмотра: 01:25:33

    Перевод текста: Профессиональный (дублированный) Советский дубляж
    Оригинальная аудиодорожка: нет
    Субтитры подготовлены: нет

    Главный режиссер: Франсис Вебер / Francis Veber

    Актеры:
    Пьер Ришар, Жерар Депардье, Стефан Бьерри, Анни Дюпре, Мишель Омон, Жан-Жак Шеффер, Филипп Хорсан, Ролан Бланш, Жак Франц, Морис Барье...

    Роли дублировали:
    Александр Белявский, Вадим Спиридонов, Александр Рыжков, Нонна Терентьева, Рудольф Панков...

    Сюжет:
    У Кристины Мартен была очень бурная молодость. Когда из дома сбегает её семнадцатилетний сын Тристан, на его поиски бросаются сразу два предполагаемых отца. Вернуть подростка в отчий дом пытаются учитель Франсуа Пиньон и журналист Жан Люка.
    Но, как выяснилось, сам Тристан не готов к двойной порции отцовской любви. Он всячески пытается уйти от погони. Непокорного подростка всё же доставляют к Кристине, под конвоем сразу двух папаш. Но в этот момент выясняется, что настоящим отцом Тристана является Поль — ещё одно увлечение ветреной мадемуазель Мартен...




    Исходник: HDTVRip 1080p
    Тип релиза: HDTVRip
    Контейнер: AVI

    Информация о видео: 704x416 (1,692:1), 25 fps, XviD ~ 1080 kbps avg, 0.147 bit/pixel
    Информация о звуке: 48 kHz, MP3 2.0, 128 kbps

    Раздача от:
    MediaInfo

    Общее
    Полное имя : Papashi.1983.HDTVRip_New-team_by_AVP_Studio.avi
    Формат : AVI
    Формат/Информация : Audio Video Interleave
    Размер файла : 745 Мбайт
    Продолжительность : 1 ч. 25 м.
    Общий поток : 1218 Кбит/сек
    Программа кодирования : VirtualDubModRus 1.5.10.2 (build 2542/release)
    Библиотека кодирования : VirtualDubMod build 2542/release

    Видео
    Идентификатор : 0
    Формат : MPEG-4 Visual
    Профиль формата : Advanced Simple@L5
    Параметр BVOP формата : 1
    Параметр QPel формата : Нет
    Параметр GMC формата : Без точки перехода
    Параметр матрицы формата : Выборочная
    Идентификатор кодека : XVID
    Идентификатор кодека/Подсказка : XviD
    Продолжительность : 1 ч. 25 м.
    Битрейт : 1080 Кбит/сек
    Ширина : 704 пикселя
    Высота : 416 пикселей
    Соотношение сторон : 1,692
    Частота кадров : 25,000 кадров/сек
    Цветовое пространство : YUV
    Субдискретизация насыщенности : 4:2:0
    Битовая глубина : 8 бит
    Тип развёртки : Прогрессивная
    Метод сжатия : С потерями
    Бит/(Пиксели*Кадры) : 0.147
    Размер потока : 661 Мбайт (89%)
    Библиотека кодирования : XviD 73

    Аудио
    Идентификатор : 1
    Формат : MPEG Audio
    Версия формата : Version 1
    Профиль формата : Layer 3
    Идентификатор кодека : 55
    Идентификатор кодека/Подсказка : MP3
    Продолжительность : 1 ч. 25 м.
    Вид битрейта : Постоянный
    Битрейт : 128 Кбит/сек
    Каналы : 2 канала
    Частота : 48,0 КГц
    Метод сжатия : С потерями
    Размер потока : 78,3 Мбайт (11%)
    Выравнивание : Соединение по промежуткам
    Продолжительность промежутка : 40 мс. (1,00 видеокадр)
    Время предзагрузки промежутка : 504 мс.
    Библиотека кодирования : LAME3.99r
    Залил: AVPStudio
    Размер скачиваемого торрента: 745.06 MB (781250560 Bytes)


    Папаши / Les compres (1983) HDTVRip от New-Team скачать через торрент бесплатно
    загрузка...
    Рейтинг →
     (голосов: 1, оценка 5/5, голосовать можно 1 раз )

    Другие торренты по теме:

  • Американский папаша! / American DaD! (2012) WEB-DL 1080p By Filiza Studio торрент скачать бесплатно
  • Папаши / Les Comperes (1983) HDTVRip от dexter lex | D торрент скачать бесплатно
  • Парни с детьми / Папаши / Guys with Kids (2012) HDTVRip | LexStudio DreamRecords торрент скачать бесплатно
  • Папаша / Starbuck (2011) BDRip-AVC | iPad торрент скачать бесплатно
  • Папаша / Starbuck (2011) BDRip от HQCLUB | Лицензия торрент скачать бесплатно
  • Папаши (2011) DVD от Generalfilm | КПК торрент скачать бесплатно
  • Папаши / Dads (2013) WEB-DL | Несмертельное оружие скачать через торрент бесплатно
  • Папаши / Dads (2013) WEB-DLRip | Несмертельное оружие скачать через торрент бесплатно


    • Комментарии (0):

      Информация

      Информация

        Посетители, находящиеся в группе Гости, не могут оставлять комментарии в данной новости.

        ↓ Меню



        ↓ Опрос

        А Вы добавили сайт в закладки?
        Да
        Не


        Top 10 за неделю (Фильмы)