.
Авторизация | Регистрация
» » Анжелика и султан / Anglique et le sultan (1968) BDRip by msltel | D, P торрент скачать бесплатно




    Анжелика и султан / Anglique et le sultan (1968) BDRip by msltel | D, P торрент скачать бесплатно

    Опубликовал: Админ | Дата: 27-02-2015, 11:10 | Просмотров: 283



    Русское название: Анжелика и султан
    Русское название в мировом прокате: Ang?lique et le sultan
    Создали в: 1968
    Категория жанра: Приключения, мелодрама
    Снималось в: Франция, Италия, Германия (ФРГ), CICC, Cin?phonic, Divina-Film, Fono Roma, Francos Films, Gloria-Film GmbH
    Главный режиссер: Бернар Бордери
    Актеры: Мишель Мерсье, Жан-Клод Паскаль, Робер Оссейн, Хельмут Шнайдер, Али Бен Айед, Анри Коган, Роже Пика, Жак Санти, Эрно Криса, Сигхардт Рупп

    Сюжет фильма: Отвергнутая Версалем и преследуемая королевскими слугами Анжелика оказывается на Востоке. Захваченная в плен воинами арабского султана, она попадает к нему в гарем, но в очередной раз доказывает свою преданность мужу. Единственное чувство, согревающее сердце Анжелики, это надежда вновь обрести своего возлюбленного.... Экранизация многотомного романа Анн и Сержа Голон Анжелика.

    Качество фильма: BDRip
    Размер скачиваемого торрента: 2.35 ГБ
    Время просмотра: 01:37:40

    Информация о видео: XviD, 1899 Kбит/с, 720x304
    Информация о звуке 1: русский, 48 kHz, AC3, 2 ch, 384 kbps avg, Дублированный, ЦТВ со вставками НТВ
    Информация о звуке 2: русский, 48 kHz, AC3, 2 ch, 384 kbps avg, Профессиональный многоголосый, НТВ

    Внешние файлы
    Информация о звуке: украинский, 48 kHz, AC3, 2 ch, 384 kbps avg, Профессиональный двухголосый, 1 1
    Информация о звуке: французский, 48 kHz, AC3, 2 ch, 384 kbps avg, Оригинал
    Субтитры: русские

    Исходник: andarmo (Кинозал)

    Сравнение с исходником



    MediaInfo
    Общее
    Полное имя : E:VideoAngelika.5.1968.XviD.BDRipAngelika.5.1968.DVO.ukr.1 1.ac3
    Формат : AC-3
    Формат/Информация : Audio Coding 3
    Размер файла : 268 Мбайт
    Продолжительность : 1 ч. 37 м.
    Режим общего битрейта : Постоянный
    Общий поток : 384 Кбит/сек

    Аудио
    Формат : AC-3
    Формат/Информация : Audio Coding 3
    Расширение режима : CM (complete main)
    Параметр Endianness формата : Big
    Продолжительность : 1 ч. 37 м.
    Вид битрейта : Постоянный
    Битрейт : 384 Кбит/сек
    Каналы : 2 канала
    Расположение каналов : Front: L R
    Частота : 48,0 КГц
    Битовая глубина : 16 бит
    Метод сжатия : С потерями
    Размер потока : 268 Мбайт (100%)

    Общее
    Полное имя : E:VideoAngelika.5.1968.XviD.BDRipAngelika.5.1968.Original.fre.ac3
    Формат : AC-3
    Формат/Информация : Audio Coding 3
    Размер файла : 268 Мбайт
    Продолжительность : 1 ч. 37 м.
    Режим общего битрейта : Постоянный
    Общий поток : 384 Кбит/сек

    Аудио
    Формат : AC-3
    Формат/Информация : Audio Coding 3
    Расширение режима : CM (complete main)
    Параметр Endianness формата : Big
    Продолжительность : 1 ч. 37 м.
    Вид битрейта : Постоянный
    Битрейт : 384 Кбит/сек
    Каналы : 2 канала
    Расположение каналов : Front: L R
    Частота : 48,0 КГц
    Битовая глубина : 16 бит
    Метод сжатия : С потерями
    Размер потока : 268 Мбайт (100%)

    Общее
    Полное имя : E:VideoAngelika.5.1968.XviD.BDRipAngelika.5.1968.rus.srt
    Формат : SubRip
    Размер файла : 63,0 Кбайт

    Текст
    Формат : SubRip
    Метод сжатия : Без потерь

    Общее
    Полное имя : E:VideoAngelika.5.1968.XviD.BDRipAngelika.5.1968.XviD.BDRip.avi
    Формат : AVI
    Формат/Информация : Audio Video Interleave
    Размер файла : 1,83 Гбайт
    Продолжительность : 1 ч. 37 м.
    Общий поток : 2681 Кбит/сек
    Программа кодирования : VirtualDubMod 1.5.10.2 (build 2540/release)
    Библиотека кодирования : VirtualDubMod build 2540/release

    Видео
    Идентификатор : 0
    Формат : MPEG-4 Visual
    Профиль формата : Advanced Simple@L5
    Параметр BVOP формата : 1
    Параметр QPel формата : Нет
    Параметр GMC формата : Без точки перехода
    Параметр матрицы формата : Default (H.263)
    Режим смешивания : Сжатый битовый поток
    Идентификатор кодека : XVID
    Идентификатор кодека/Подсказка : XviD
    Продолжительность : 1 ч. 37 м.
    Битрейт : 1899 Кбит/сек
    Ширина : 720 пикселей
    Высота : 304 пикселя
    Соотношение сторон : 2,35:1
    Частота кадров : 24,000 кадра/сек
    Цветовое пространство : YUV
    Субдискретизация насыщенности : 4:2:0
    Битовая глубина : 8 бит
    Тип развёртки : Прогрессивная
    Метод сжатия : С потерями
    Бит/(Пиксели*Кадры) : 0.362
    Размер потока : 1,30 Гбайт (71%)
    Библиотека кодирования : XviD 1.2.1 (UTC 2008-12-04)

    Аудио #1
    Идентификатор : 1
    Формат : AC-3
    Формат/Информация : Audio Coding 3
    Расширение режима : CM (complete main)
    Параметр Endianness формата : Big
    Идентификатор кодека : 2000
    Продолжительность : 1 ч. 37 м.
    Вид битрейта : Постоянный
    Битрейт : 384 Кбит/сек
    Каналы : 2 канала
    Расположение каналов : Front: L R
    Частота : 48,0 КГц
    Битовая глубина : 16 бит
    Метод сжатия : С потерями
    Размер потока : 268 Мбайт (14%)
    Выравнивание : Разделение по промежуткам
    Продолжительность промежутка : 42 мс. (1,00 видеокадр)
    Время предзагрузки промежутка : 500 мс.

    Аудио #2
    Идентификатор : 2
    Формат : AC-3
    Формат/Информация : Audio Coding 3
    Расширение режима : CM (complete main)
    Параметр Endianness формата : Big
    Идентификатор кодека : 2000
    Продолжительность : 1 ч. 37 м.
    Вид битрейта : Постоянный
    Битрейт : 384 Кбит/сек
    Каналы : 2 канала
    Расположение каналов : Front: L R
    Частота : 48,0 КГц
    Битовая глубина : 16 бит
    Метод сжатия : С потерями
    Размер потока : 268 Мбайт (14%)
    Выравнивание : Разделение по промежуткам
    Продолжительность промежутка : 42 мс. (1,00 видеокадр)
    Время предзагрузки промежутка : 500 мс.
    Скриншоты для ознакомления



    Залил: msltel
    Размер скачиваемого торрента: 2.35 GB (2526775287 Bytes)

    Анжелика и султан / Anglique et le sultan (1968) BDRip by msltel | D, P торрент скачать бесплатно
    загрузка...
    Рейтинг →
     (голосов: 1, оценка 4/5, голосовать можно 1 раз )

    Другие торренты по теме:

  • Анжелика Рута - Чистые ливни (2013) MP3 торрент скачать бесплатно
  • Анжелика Агурбаш - Концерт в Кремлевском дворце (2011) DVB торрент скачать бесплатно
  • Анжелика Варум - Сумасшедшая (2013) MP3 торрент скачать бесплатно
  • Анжелика Варум - Дискография (1991-2011) МР3 от IMA-Sound торрент скачать бесплатно
  • Анжелика Уивер: Поймай меня, когда сможешь. Коллекционное издание (2013) PC торрент скачать бесплатно
  • Анжелика Варум - Дискография (1991-2013) MP3 от IMA-Sound торрент скачать бесплатно
  • Анжелика, маркиза ангелов (2014) скачать через торрент бесплатно
  • Великолепная Анжелика / Merveilleuse Angelique (1965) HDTV 1080i от ClubTorrent | D скачать через торрент бесплатно


    • Комментарии (0):

      Информация

      Информация

        Посетители, находящиеся в группе Гости, не могут оставлять комментарии в данной новости.

        ↓ Меню



        ↓ Опрос

        А Вы добавили сайт в закладки?
        Да
        Не


        Top 10 за неделю (Фильмы)