.
Авторизация | Регистрация
» » Соломенные псы / Straw Dogs (1971) BDRip-AVC | P, А торрент скачать бесплатно




    Соломенные псы / Straw Dogs (1971) BDRip-AVC | P, А торрент скачать бесплатно

    Опубликовал: Админ | Дата: 27-02-2015, 11:10 | Просмотров: 298

    Соломенные псы / Straw Dogs (1971) BDRip-AVC



    Категория жанра: триллер, драма
    Снималось в: США , Великобритания
    Время просмотра: 01:57:54
    Перевол: Профессиональный многоголосый закадровый, Авторский одноголосый, Оригинальный (Английский)
    Субтитры: русские,английские

    Главный режиссер: Сэм Пекинпа

    Актеры: Дастин Хоффман, Сьюзен Джордж, Питер Вон, Т.П. МакКенна, Дел Хенни, Джим Нортон, Дональд Уэбстер, Кен Хатчинсон, Лен Джонс, Сэлли Томсетт

    Сюжет фильма: Застенчивый американский математик Дэвид переезжает в сельскую Англию на ферму, где родилась и выросла его сексапильная жена. Местное население настроено враждебно и ведет себя как стая мародеров из Ночи живых мертвецов. И робкий математик, убежденный противник насилия, больше всего на свете обожающий тишину и уединение, вынужден защищать свою честь с оружием в руках. А почуяв запах крови, он уже не может остановиться и начинает убивать, убивать, убивать…

    Мировая премьера: 3 ноября 1971



    Качество фильма: BDRip-AVC
    Информация о видео: 1024х560 (16:9), 23,976 fps, 1 204 kbps, 0.088 bit/pixel
    Информация о звуке 1: 48 kHz, AC3, 2 ch, 192 kbps - MVO-Студия Ракурс
    Информация о звуке 2: 48 kHz, AC3, 2 ch, 192 kbps - Гаврилов
    Информация о звуке 3: 48 kHz, AC3, 6 ch, 448 kbps - Живов
    Информация о звуке 4: 48 kHz, AC3, 2 ch, 192 kbps - Михалев
    Информация о звуке 5: 48 kHz, AC3, 2 ch, 192 kbps - Толбин
    Информация о звуке 6: 48 kHz, AC3, 6 ch, 384 kbps - Либергал
    Информация о звуке 7: 48 kHz, AAC, 6 ch, 256 kbps - MVO-Магия
    Информация о звуке 8: 48 kHz, AAC, 6 ch, 256 kbps - Английский
    Сэмпл: Ссылка

    MediaInfo
    Format : Matroska
    Format version : Version 2
    File size : 2.67 GiB
    Duration : 1h 57mn
    Overall bit rate : 3 238 Kbps
    Encoded date : UTC 2014-01-27 07:00:48
    Writing application : mkvmerge v5.3.0 (;I could have danced;) built on Feb 9 2012 10:38:07
    Writing library : libebml v1.2.3 libmatroska v1.3.0
    Attachment : Yes

    Video
    ID : 1
    Format : AVC
    Format/Info : Advanced Video Codec
    Format profile : High@L4.1
    Format settings, CABAC : Yes
    Format settings, ReFrames : 4 frames
    Codec ID : V_MPEG4/ISO/AVC
    Duration : 1h 57mn
    Nominal bit rate : 1 204 Kbps
    Width : 1 024 pixels
    Height : 560 pixels
    Display aspect ratio : 1.85:1
    Frame rate mode : Constant
    Frame rate : 23.976 fps
    Color space : YUV
    Chroma subsampling : 4:2:0
    Bit depth : 8 bits
    Scan type : Progressive
    Bits/(Pixel*Frame) : 0.088
    Writing library : x264 core 116 r2074 2641b9e
    Encoding settings : cabac=1 / ref=3 / deblock=1:-3:-3 / analyse=0x3:0x113 / me=umh / subme=9 / psy=1 / psy_rd=1.00:0.00 / mixed_ref=1 / me_range=32 / chroma_me=1 / trellis=1 / 8x8dct=1 / cqm=0 / deadzone=21,11 / fast_pskip=1 / chroma_qp_offset=-2 / threads=3 / sliced_threads=0 / nr=0 / decimate=1 / interlaced=0 / bluray_compat=0 / constrained_intra=0 / bframes=3 / b_pyramid=2 / b_adapt=1 / b_bias=0 / direct=1 / weightb=1 / open_gop=0 / weightp=2 / keyint=250 / keyint_min=23 / scenecut=40 / intra_refresh=0 / rc=2pass / mbtree=0 / bitrate=1204 / ratetol=1.0 / qcomp=0.60 / qpmin=10 / qpmax=51 / qpstep=4 / cplxblur=20.0 / qblur=0.5 / ip_ratio=1.40 / pb_ratio=1.30 / aq=1:1.00
    Default : No
    Forced : No

    Audio #1
    ID : 2
    Format : AC-3
    Format/Info : Audio Coding 3
    Mode extension : CM (complete main)
    Format settings, Endianness : Big
    Codec ID : A_AC3
    Duration : 1h 57mn
    Bit rate mode : Constant
    Bit rate : 192 Kbps
    Channel(s) : 2 channels
    Channel positions : Front: L R
    Sampling rate : 48.0 KHz
    Bit depth : 16 bits
    Compression mode : Lossy
    Stream size : 162 MiB (6%)
    Title : Профессиональный многоголосый (Ракурс)
    Language : Russian
    Default : No
    Forced : No

    Audio #2
    ID : 3
    Format : AC-3
    Format/Info : Audio Coding 3
    Mode extension : CM (complete main)
    Format settings, Endianness : Big
    Codec ID : A_AC3
    Duration : 1h 57mn
    Bit rate mode : Constant
    Bit rate : 192 Kbps
    Channel(s) : 2 channels
    Channel positions : Front: L R
    Sampling rate : 48.0 KHz
    Bit depth : 16 bits
    Compression mode : Lossy
    Stream size : 162 MiB (6%)
    Title : Авторский одноголосый Гаврилов
    Language : Russian
    Default : No
    Forced : No

    Audio #3
    ID : 4
    Format : AC-3
    Format/Info : Audio Coding 3
    Mode extension : CM (complete main)
    Format settings, Endianness : Big
    Codec ID : A_AC3
    Duration : 1h 57mn
    Bit rate mode : Constant
    Bit rate : 448 Kbps
    Channel(s) : 6 channels
    Channel positions : Front: L C R, Side: L R, LFE
    Sampling rate : 48.0 KHz
    Bit depth : 16 bits
    Compression mode : Lossy
    Stream size : 378 MiB (14%)
    Title : Авторский одноголосый Живов
    Language : Russian
    Default : No
    Forced : No

    Audio #4
    ID : 5
    Format : AC-3
    Format/Info : Audio Coding 3
    Mode extension : CM (complete main)
    Format settings, Endianness : Big
    Codec ID : A_AC3
    Duration : 1h 57mn
    Bit rate mode : Constant
    Bit rate : 192 Kbps
    Channel(s) : 2 channels
    Channel positions : Front: L R
    Sampling rate : 48.0 KHz
    Bit depth : 16 bits
    Compression mode : Lossy
    Stream size : 162 MiB (6%)
    Title : Авторский одноголосый Михалёв
    Language : Russian
    Default : No
    Forced : No

    Audio #5
    ID : 6
    Format : AC-3
    Format/Info : Audio Coding 3
    Mode extension : CM (complete main)
    Format settings, Endianness : Big
    Codec ID : A_AC3
    Duration : 1h 57mn
    Bit rate mode : Constant
    Bit rate : 192 Kbps
    Channel(s) : 2 channels
    Channel positions : Front: L R
    Sampling rate : 48.0 KHz
    Bit depth : 16 bits
    Compression mode : Lossy
    Stream size : 162 MiB (6%)
    Title : Авторский одноголосый Толбин
    Language : Russian
    Default : No
    Forced : No

    Audio #6
    ID : 7
    Format : AC-3
    Format/Info : Audio Coding 3
    Mode extension : CM (complete main)
    Format settings, Endianness : Big
    Codec ID : A_AC3
    Duration : 1h 57mn
    Bit rate mode : Constant
    Bit rate : 384 Kbps
    Channel(s) : 6 channels
    Channel positions : Front: L C R, Side: L R, LFE
    Sampling rate : 48.0 KHz
    Bit depth : 16 bits
    Compression mode : Lossy
    Stream size : 324 MiB (12%)
    Title : Либергал
    Language : Russian
    Default : No
    Forced : No

    Audio #7
    ID : 8
    Format : AAC
    Format/Info : Advanced Audio Codec
    Format profile : LC
    Codec ID : A_AAC
    Duration : 1h 57mn
    Channel(s) : 6 channels
    Channel positions : Front: L C R, Side: L R, LFE
    Sampling rate : 48.0 KHz
    Compression mode : Lossy
    Title : Профессиональный многоголосый (Магия)
    Language : Russian
    Default : Yes
    Forced : No

    Audio #8
    ID : 9
    Format : AAC
    Format/Info : Advanced Audio Codec
    Format profile : LC
    Codec ID : A_AAC
    Duration : 1h 57mn
    Channel(s) : 2 channels
    Channel positions : Front: L R
    Sampling rate : 48.0 KHz
    Compression mode : Lossy
    Title : Оригинал
    Language : English
    Default : No
    Forced : No

    Text #1
    ID : 10
    Format : UTF-8
    Codec ID : S_TEXT/UTF8
    Codec ID/Info : UTF-8 Plain Text
    Language : English
    Default : Yes
    Forced : No

    Text #2
    ID : 11
    Format : UTF-8
    Codec ID : S_TEXT/UTF8
    Codec ID/Info : UTF-8 Plain Text
    Language : Russian
    Default : No
    Forced : No

    Text #3
    ID : 12
    Format : UTF-8
    Codec ID : S_TEXT/UTF8
    Codec ID/Info : UTF-8 Plain Text
    Language : Russian
    Default : No
    Forced : No
    Скриншоты для ознакомления

    Размер скачиваемого торрента: 2.67 GB (2863342041 Bytes)

    Соломенные псы / Straw Dogs (1971) BDRip-AVC | P, А торрент скачать бесплатно
    загрузка...
    Рейтинг →
     (голосов: 1, оценка 4/5, голосовать можно 1 раз )

    Другие торренты по теме:

  • Соломенные псы / Straw Dogs (2011) BDRip-AVC | iPad торрент скачать бесплатно
  • Соломенные псы / Straw Dogs (2011) BDRip-AVC | D, А торрент скачать бесплатно
  • Соломенные псы / Straw Dogs (2011) Blu-ray 1080p | D скачать торрент бесплатно


    • Комментарии (0):

      Информация

      Информация

        Посетители, находящиеся в группе Гости, не могут оставлять комментарии в данной новости.

        ↓ Меню



        ↓ Опрос

        А Вы добавили сайт в закладки?
        Да
        Не


        Top 10 за неделю (Фильмы)