.
Авторизация | Регистрация
» » Пылающее небо / Пылающий берег / / Glhender Himmel (1991) DVDRip торрент скачать бесплатно




    Пылающее небо / Пылающий берег / / Glhender Himmel (1991) DVDRip торрент скачать бесплатно

    Опубликовал: Админ | Дата: 27-02-2015, 11:10 | Просмотров: 873



    Снималось в: Германия, Франция, Италия
    Создали в: Laser
    Категория жанра: Драма
    Создали в: 1991

    Время просмотра: 4 x ~ 01:38:00


    Перевод текста: Профессиональный одноголосый

    Оригинальная аудиодорожка: Немецкая

    Главный режиссер: Жаннот Шварц


    Актеры: Изабелль Желина, Дерек де Линт, Джейсон Коннери, Джон Сэвидж, Марина Влади, Жан-Пьер Кассель, Эрнест Боргнайн, Фрэнк Финлей, Дженни Альфа, Мариус Йелоло

    Сюжет: Франция, 1915 год. Ждущая ребёнка молодая аристократка Сентэйн собирается выйти замуж за своего возлюбленного лётчика, но незадолго до свадьбы его самолёт сбивают немцы, и он погибает. Убитая горем невеста вместе со своей тётей решает оправиться на родину своего покойного жениха, в Южную Африку. По пути их корабль атакует подводная лодка, после чего Сентэйн оказывается выброшенной волнами на незнакомый берег…



    Исходник: DVD9 R2

    Тип релиза: DVDRip

    Контейнер: AVI


    Информация о видео: 640x480 (1.33:1), 25 fps, XviD ~1437 kbps avg, 0.19 bit/pixelИнформация о звуке:
    Информация о звуке: #1: 48 kHz, AC3 2.0, ~192.00 kbps avg (RUS)
    Информация о звуке: #2: 48 kHz, AC3 2.0, ~160.00 kbps avg (DEUCHE)

    MediaInfo
    Общее
    Полное имя : D:1АААПылающее небо1x02 - Der Diamantenberg.avi
    Формат : AVI
    Формат/Информация : Audio Video Interleave
    Размер файла : 1,24 Гбайт
    Продолжительность : 1 ч. 38 м.
    Общий поток : 1800 Кбит/сек
    Название фильма : Опаленный берег / Пылающее небо / The Burning Shore / Mountain of Diamonds (1991)
    Программа кодирования : VirtualDubMod 1.5.10.2 (build 2540/release)
    Библиотека кодирования : VirtualDubMod build 2540/release

    Видео
    Идентификатор : 0
    Формат : MPEG-4 Visual
    Профиль формата : Advanced Simple@L5
    Параметр BVOP формата : 1
    Параметр QPel формата : Нет
    Параметр GMC формата : Без точки перехода
    Параметр матрицы формата : Default (H.263)
    Идентификатор кодека : XVID
    Идентификатор кодека/Подсказка : XviD
    Продолжительность : 1 ч. 38 м.
    Битрейт : 1437 Кбит/сек
    Ширина : 640 пикселей
    Высота : 480 пикселей
    Соотношение сторон : 4:3
    Частота кадров : 25,000 кадров/сек
    Цветовое пространство : YUV
    Субдискретизация насыщенности : 4:2:0
    Битовая глубина : 8 бит
    Тип развёртки : Прогрессивная
    Метод сжатия : С потерями
    Бит/(Пиксели*Кадры) : 0.187
    Размер потока : 1014 Мбайт (80%)
    Библиотека кодирования : XviD 1.2.1 (UTC 2008-12-04)

    Аудио #1
    Идентификатор : 1
    Формат : AC-3
    Формат/Информация : Audio Coding 3
    Расширение режима : CM (complete main)
    Параметр Endianness формата : Big
    Идентификатор кодека : 2000
    Продолжительность : 1 ч. 38 м.
    Вид битрейта : Постоянный
    Битрейт : 192 Кбит/сек
    Каналы : 2 канала
    Расположение каналов : Front: L R
    Частота : 48,0 КГц
    Битовая глубина : 16 бит
    Метод сжатия : С потерями
    Размер потока : 136 Мбайт (11%)
    Выравнивание : Соединение по промежуткам
    Продолжительность промежутка : 160 мс. (4,00 видеокадра)
    Время предзагрузки промежутка : 640 мс.
    Заголовок : Профессиональный (одноголосый, закадровый)

    Аудио #2
    Идентификатор : 2
    Формат : MPEG Audio
    Версия формата : Version 1
    Профиль формата : Layer 3
    Режим : Joint stereo
    Идентификатор кодека : 55
    Идентификатор кодека/Подсказка : MP3
    Продолжительность : 1 ч. 38 м.
    Вид битрейта : Постоянный
    Битрейт : 160 Кбит/сек
    Каналы : 2 канала
    Частота : 48,0 КГц
    Метод сжатия : С потерями
    Размер потока : 113 Мбайт (9%)
    Выравнивание : Разделение по промежуткам
    Продолжительность промежутка : 40 мс. (1,00 видеокадр)
    Время предзагрузки промежутка : 500 мс.
    Заголовок : Немецкий






    Скриншоты для ознакомления




    Релиз
    miha2154, DVDRip предоставлен ve_ve, начальные титры доозвучены Мариной Видякиной (ViruseProject). На некоторые места перевод отсутствует - этих мест нет на VHS.

    Залил: YArl
    Размер скачиваемого торрента: 4.97 GB (5332723712 Bytes)

    Пылающее небо / Пылающий берег/ / Glhender Himmel (1991) DVDRip торрент скачать бесплатно
    загрузка...
    Рейтинг →
     (голосов: 1, оценка 3/5, голосовать можно 1 раз )

    Другие торренты по теме:

  • Пылающий взор Шаны: Фильм / Gekijouban Shakugan no Shana (2007) HDRip от Torrent-Xzona | L1 торрент скачать бесплатно
  • Пылающий остров / Java Heat (2013) HDRip торрент скачать бесплатно
  • Зной Явы / Пылающий остров / Java Heat (2013) BDRip-AVC | D скачать через торрент бесплатно
  • Пылающий остров / Зной Явы / Java Heat (2013) BDRip 1080p от CINEMANIA | D, L1 торрент скачать бесплатно
  • Сверкающие седла / Пылающие седла / Blazing Saddles (1974) BDRip 1080p от NNNB | P2, A торрент скачать бесплатно
  • Пылающие мертвецы / The Burning Dead (2015) BDRip 720p | P скачать торрент бесплатно
  • Пылающие мертвецы / The Burning Dead (2015) скачать торрент бесплатно
  • Пылающий август (2013) IPTVRip от Pshichko66 скачать торрент бесплатно


    • Комментарии (0):

      Информация

      Информация

        Посетители, находящиеся в группе Гости, не могут оставлять комментарии в данной новости.

        ↓ Меню



        ↓ Опрос

        А Вы добавили сайт в закладки?
        Да
        Не


        Top 10 за неделю (Фильмы)