.
Авторизация | Регистрация
» » Закричи на дьявола / Shout at the Devil (1976) DVDRip скачать через торрент бесплатно




    Закричи на дьявола / Shout at the Devil (1976) DVDRip скачать через торрент бесплатно

    Опубликовал: Админ | Дата: 27-02-2015, 11:10 | Просмотров: 283





    Снималось в: Великобритания
    Создали в: Tonav Productions
    Категория жанра: Приключения
    Создали в: 1976

    Время просмотра: 01:54:54


    Перевод текста: Профессиональный многоголосый, профессиональный двухголосый


    Оригинальная аудиодорожка: Английская

    Главный режиссер: Питер Р. Хант


    Актеры: Ли Марвин, Роджер Мур, Барбара Паркинс, Иэн Холм, Гернот Энденман, Райнхард Коллдехофф, Жерар Паки, Хорст Янсон, Карл Михель Фоглер, Морис Денем, Джин Кент, Хизер Райт, Джордж Кулурис, Мюррэй Мелвин, Бернар Хорсфолл, Питер Коупли


    Сюжет: Действие фильма происходит в Африке во время первой мировой войны. Сильно пьющий американец, охотник на слонов, его дочь и англичанин с безукоризненными манерам после многочисленных приключений подрывают огромный германский крейсер.



    Исходник: DVD9 R2

    Тип релиза: DVDRip

    Контейнер: AVI


    Информация о видео: 720x400 (1.80:1), 23.976 fps, XviD ~1965 kbps avg, 0.28 bit/pixel
    Информация о звуке: #1: 48 kHz, AC3 2.0 ~192.00 kbps avg (RUS)
    Информация о звуке: #2: 48 kHz, AC3 2.0 ~192.00 kbps avg (RUS)
    Информация о звуке: #3: 48 kHz, AC3 2.0 ~128.00 kbps avg (ENG)


    MediaInfo
    Общее
    Полное имя : D:залитьЗакричи на дьявола.avi
    Формат : AVI
    Формат/Информация : Audio Video Interleave
    Профиль формата : OpenDML
    Размер файла : 2,05 Гбайт
    Продолжительность : 1 ч. 54 м.
    Общий поток : 2548 Кбит/сек
    Программа кодирования : VirtualDubMod 1.5.10.2 (build 2540/release)
    Библиотека кодирования : VirtualDubMod build 2540/release

    Видео
    Идентификатор : 0
    Формат : MPEG-4 Visual
    Профиль формата : Advanced Simple@L5
    Параметр BVOP формата : 2
    Параметр QPel формата : Нет
    Параметр GMC формата : Без точки перехода
    Параметр матрицы формата : Default (MPEG)
    Режим смешивания : Сжатый битовый поток
    Идентификатор кодека : XVID
    Идентификатор кодека/Подсказка : XviD
    Продолжительность : 1 ч. 54 м.
    Битрейт : 1947 Кбит/сек
    Ширина : 720 пикселей
    Высота : 400 пикселей
    Соотношение сторон : 16:9
    Частота кадров : 23,976 кадра/сек
    Цветовое пространство : YUV
    Субдискретизация насыщенности : 4:2:0
    Битовая глубина : 8 бит
    Тип развёртки : Прогрессивная
    Метод сжатия : С потерями
    Бит/(Пиксели*Кадры) : 0.282
    Размер потока : 1,56 Гбайт (76%)
    Библиотека кодирования : XviD 1.2.1 (UTC 2008-12-04)

    Аудио #1
    Идентификатор : 1
    Формат : AC-3
    Формат/Информация : Audio Coding 3
    Расширение режима : CM (complete main)
    Параметр Endianness формата : Big
    Идентификатор кодека : 2000
    Продолжительность : 1 ч. 54 м.
    Вид битрейта : Постоянный
    Битрейт : 192 Кбит/сек
    Каналы : 2 канала
    Расположение каналов : Front: L R
    Частота : 48,0 КГц
    Битовая глубина : 16 бит
    Метод сжатия : С потерями
    Размер потока : 158 Мбайт (8%)
    Выравнивание : Разделение по промежуткам
    Продолжительность промежутка : 42 мс. (1,00 видеокадр)
    Время предзагрузки промежутка : 500 мс.

    Аудио #2
    Идентификатор : 2
    Формат : AC-3
    Формат/Информация : Audio Coding 3
    Расширение режима : CM (complete main)
    Параметр Endianness формата : Big
    Идентификатор кодека : 2000
    Продолжительность : 1 ч. 54 м.
    Вид битрейта : Постоянный
    Битрейт : 192 Кбит/сек
    Каналы : 2 канала
    Расположение каналов : Front: L R
    Частота : 48,0 КГц
    Битовая глубина : 16 бит
    Метод сжатия : С потерями
    Размер потока : 158 Мбайт (8%)
    Выравнивание : Разделение по промежуткам
    Продолжительность промежутка : 42 мс. (1,00 видеокадр)
    Время предзагрузки промежутка : 500 мс.

    Аудио #3
    Идентификатор : 3
    Формат : AC-3
    Формат/Информация : Audio Coding 3
    Расширение режима : CM (complete main)
    Параметр Endianness формата : Big
    Идентификатор кодека : 2000
    Продолжительность : 1 ч. 54 м.
    Вид битрейта : Постоянный
    Битрейт : 192 Кбит/сек
    Каналы : 2 канала
    Расположение каналов : Front: L R
    Частота : 48,0 КГц
    Битовая глубина : 16 бит
    Метод сжатия : С потерями
    Размер потока : 158 Мбайт (8%)
    Выравнивание : Разделение по промежуткам
    Продолжительность промежутка : 42 мс. (1,00 видеокадр)
    Время предзагрузки промежутка : 500 мс.






    Скриншоты для ознакомления



    Автор рипа:
    Залил: YArl
    Размер скачиваемого торрента: 2.05 GB (2196054016 Bytes)

    Закричи на дьявола / Shout at the Devil (1976) DVDRip скачать через торрент бесплатно
    загрузка...
    Рейтинг →
     (голосов: 1, оценка 5/5, голосовать можно 1 раз )

    Другие торренты по теме:



      Комментарии (0):

      Информация

      Информация

        Посетители, находящиеся в группе Гости, не могут оставлять комментарии в данной новости.

        ↓ Меню



        ↓ Опрос

        А Вы добавили сайт в закладки?
        Да
        Не


        Top 10 за неделю (Фильмы)