.
Авторизация | Регистрация
Хочешь лучшие торренты? Добавь свой email!
Добавить
» » Потрошители / Repo Men (2010) BDRip-AVC | D, A | Unrated скачать через торрент бесплатно




    Потрошители / Repo Men (2010) BDRip-AVC | D, A | Unrated скачать через торрент бесплатно

    Опубликовал: Админ | Дата: 27-02-2015, 11:10 | Просмотров: 259



    Детально о кино
    Русское название: Потрошители
    Русское название в мировом прокате: Repo Men
    Создали в: 2010
    Категория жанра: фантастика, боевик, триллер, драма, кримина
    Время просмотра: 01:59:36
    Перевод текста: Дублированный, Авторский одноголосый закадровый А.Гаврилов, Авторский одноголосый закадровый Ю.Немахов
    Оригинальная звуковая дорожка: английский
    Язык субтитров: Русские (2 вида), английские

    Главный режиссер: Мигель Сапочник

    Актеры: Джуд Лоу, Форест Уитакер, Алиси Брага, Лив Шрайбер, Кэрис Ван Хаутен, Чандлер Кентербери, Джо Пинг, Лиза Лапира, Тиффани Эспенсен, Ивет Николь Браун

    Сюжет фильма:
    В недалеком будущем искусственные органы будут доступны всем и даже в кредит. Если же человек не в состоянии оплатить долг, то принимаются крайне жесткие меры. Однажды к нему в дом может вломиться Потрошитель, который способен подавить любое сопротивление и должен изъять из него искусственный орган, собственность компании Union. Реми как раз такой — и охотник, и жертва — он Потрошитель, и он же не может оплатить пересадку сердца, а посему вынужден пуститься в бега…



    Качество фильма: BDRip-AVC
    Информация о видео: MPEG-4 AVC/H.264, 1024x436, ~1900 Кбит/с
    Информация о звуке 1: AC-3, 6 ch, 384 kbps (Rus) - Дубляж
    Информация о звуке 2: AC-3, 6 ch, 384 kbps (Rus) - Авторский одноголосый закадровый А.Гаврилов
    Информация о звуке 3: AC-3, 6 ch, 384 kbps (Eng) - Авторский одноголосый закадровый Ю.Немахов
    Информация о звуке 4: AC-3, 6 ch, 384 kbps (Eng) - Оригинал


    MediaInfo
    Format : Matroska
    Format version : Version 2
    File size : 2.87 GiB
    Duration : 1h 59mn
    Overall bit rate : 3 435 Kbps
    Encoded date : UTC 2014-01-22 23:48:42
    Writing application : mkvmerge v5.3.0 (;I could have danced;) built on Feb 9 2012 10:38:07
    Writing library : libebml v1.2.3 libmatroska v1.3.0
    Attachment : Yes

    Video
    ID : 1
    Format : AVC
    Format/Info : Advanced Video Codec
    Format profile : High@L4.1
    Format settings, CABAC : Yes
    Format settings, ReFrames : 8 frames
    Codec ID : V_MPEG4/ISO/AVC
    Duration : 1h 59mn
    Bit rate : 1 900 Kbps
    Width : 1 024 pixels
    Height : 436 pixels
    Display aspect ratio : 2.35:1
    Frame rate mode : Constant
    Frame rate : 23.976 fps
    Color space : YUV
    Chroma subsampling : 4:2:0
    Bit depth : 8 bits
    Scan type : Progressive
    Bits/(Pixel*Frame) : 0.177
    Stream size : 1.53 GiB (53%)
    Writing library : x264 core 114 r1913 5fd3dce
    Encoding settings : cabac=1 / ref=8 / deblock=1:-1:-1 / analyse=0x3:0x133 / me=umh / subme=9 / psy=1 / psy_rd=1.00:0.20 / mixed_ref=1 / me_range=48 / chroma_me=1 / trellis=2 / 8x8dct=1 / cqm=0 / deadzone=21,11 / fast_pskip=0 / chroma_qp_offset=-3 / threads=1 / sliced_threads=0 / nr=0 / decimate=0 / interlaced=0 / constrained_intra=0 / bframes=8 / b_pyramid=2 / b_adapt=2 / b_bias=0 / direct=1 / weightb=1 / open_gop=0 / weightp=2 / keyint=240 / keyint_min=23 / scenecut=40 / intra_refresh=0 / rc_lookahead=100 / rc=2pass / mbtree=1 / bitrate=1900 / ratetol=1.0 / qcomp=0.60 / qpmin=10 / qpmax=51 / qpstep=4 / cplxblur=20.0 / qblur=0.5 / ip_ratio=1.40 / aq=1:1.10
    Language : English
    Default : No
    Forced : No

    Audio #1
    ID : 2
    Format : AC-3
    Format/Info : Audio Coding 3
    Mode extension : CM (complete main)
    Format settings, Endianness : Big
    Codec ID : A_AC3
    Duration : 1h 59mn
    Bit rate mode : Constant
    Bit rate : 384 Kbps
    Channel(s) : 6 channels
    Channel positions : Front: L C R, Side: L R, LFE
    Sampling rate : 48.0 KHz
    Bit depth : 16 bits
    Compression mode : Lossy
    Stream size : 329 MiB (11%)
    Language : Russian
    Default : Yes
    Forced : No

    Audio #2
    ID : 3
    Format : AC-3
    Format/Info : Audio Coding 3
    Mode extension : CM (complete main)
    Format settings, Endianness : Big
    Codec ID : A_AC3
    Duration : 1h 59mn
    Bit rate mode : Constant
    Bit rate : 384 Kbps
    Channel(s) : 6 channels
    Channel positions : Front: L C R, Side: L R, LFE
    Sampling rate : 48.0 KHz
    Bit depth : 16 bits
    Compression mode : Lossy
    Stream size : 329 MiB (11%)
    Title : Авторский А.Гаврилов
    Language : Russian
    Default : No
    Forced : No

    Audio #3
    ID : 4
    Format : AC-3
    Format/Info : Audio Coding 3
    Mode extension : CM (complete main)
    Format settings, Endianness : Big
    Codec ID : A_AC3
    Duration : 1h 59mn
    Bit rate mode : Constant
    Bit rate : 384 Kbps
    Channel(s) : 6 channels
    Channel positions : Front: L C R, Side: L R, LFE
    Sampling rate : 48.0 KHz
    Bit depth : 16 bits
    Compression mode : Lossy
    Stream size : 329 MiB (11%)
    Title : Авторский Немахов
    Language : Russian
    Default : No
    Forced : No

    Audio #4
    ID : 5
    Format : AC-3
    Format/Info : Audio Coding 3
    Mode extension : CM (complete main)
    Format settings, Endianness : Big
    Codec ID : A_AC3
    Duration : 1h 59mn
    Bit rate mode : Constant
    Bit rate : 384 Kbps
    Channel(s) : 6 channels
    Channel positions : Front: L C R, Side: L R, LFE
    Sampling rate : 48.0 KHz
    Bit depth : 16 bits
    Compression mode : Lossy
    Stream size : 329 MiB (11%)
    Language : English
    Default : No
    Forced : No

    Text #1
    ID : 6
    Format : UTF-8
    Codec ID : S_TEXT/UTF8
    Codec ID/Info : UTF-8 Plain Text
    Language : Russian
    Default : Yes
    Forced : No

    Text #2
    ID : 7
    Format : UTF-8
    Codec ID : S_TEXT/UTF8
    Codec ID/Info : UTF-8 Plain Text
    Title : Voronine
    Language : Russian
    Default : No
    Forced : No

    Text #3
    ID : 8
    Format : UTF-8
    Codec ID : S_TEXT/UTF8
    Codec ID/Info : UTF-8 Plain Text
    Language : English
    Default : No
    Forced : No
    Скриншоты для ознакомления

    Размер скачиваемого торрента: 2.87 GB (3081878123 Bytes)

    Потрошители / Repo Men (2010) BDRip-AVC | D, A | Unrated скачать через торрент бесплатно
    загрузка...
    Рейтинг →
     (голосов: 1, оценка 3/5, голосовать можно 1 раз )

    Другие торренты по теме:

  • Потрошители / Repo Men (2010) Blu-Ray 1080p | Unrated
  • Потрошители / Repo Men (2010) BDRip 720p | D, A | Unrated скачать через торрент бесплатно
  • Потрошители / Repo Men (2010) HDRip от Scarabey | D скачать через торрент бесплатно
  • Потрошители / Repo Men (2010) BDRip 720p от HELLYWOOD | Расширенная версия
  • Роберт Асприн, Линда Эванс - Вокзал времени (Книга 3 - Потрошители времени) (2000) (2016) MP3, моно


    • Комментарии (0):

      Информация

      Информация

        Посетители, находящиеся в группе Гости, не могут оставлять комментарии в данной новости.

        ↓ Меню



        ↓ Опрос

        А Вы добавили сайт в закладки?
        Да
        Не


        Top 10 за месяц (Фильмы)