.
Авторизация | Регистрация
» » Убийство первой степени / Murder in the First (1995) BDRip-AVC от 0ptimus | P, A торрент скачать бесплатно




    Убийство первой степени / Murder in the First (1995) BDRip-AVC от 0ptimus | P, A торрент скачать бесплатно

    Опубликовал: Админ | Дата: 27-02-2015, 11:10 | Просмотров: 298



    Детально о кино
    Русское название: Убийство первой степени
    Русское название в мировом прокате: Murder in the First
    Создали в: 1995
    Категория жанра: драма, триллер
    Главный режиссер: Марк Рокко
    Актеры: Кристиан Слэйтер, Кевин Бэйкон, Гари Олдман, Эмбет Дэвидц, Уильям Х. Мэйси, Стивен Тоболовски, Брэд Дуриф, Р. Ли Эрми, Миа Киршнер, Бен Слэк, Стефан Гираш, Кира Седжвик, Ричи Аллан, Херб Риттс, Чарльз Босуэлл, Дэвид Майкл Стерлинг, Майкл Мелвин, Джордж Магуайр, Ник Скоггин, Дуглас Беннетт, Джозеф Ричардс, Джулиус Варнадо, Тони Барр, Стюарт Нисбет, Гари Баллард, Рэнди Пелиш, Нил Саммерс, Сонни Кинг, Эдди Боуз, Брайан Лекнер, Тайм Уинтерс, Джеймс Кин, Лэнс Брэйди, Ли Мэтис, Вейн Паркс, Уоррен Споттисвуд, Томас Финск, Роберт Ли, Шелон Фелднер, Фред Франклин, Дэнни Ковач

    Сюжет фильма:
    В этой тяжёлой тюремной драме, основанной на реальных событиях, вы сможете узнать о причинах закрытия печально известной тюрьмы Алькатрас. Оставшись сиротой в 15 лет, Генри Янг украл пять долларов, чтобы накормить маленькую сестру, и был схвачен на месте преступления. Но его первоначально небольшой срок растянулся на долгие годы. За попытку побега Генри был голым брошен в каменный мешок без окна, отопления, постели и умывальника, где провел три года и два месяца. После освобождения из карцера он был обвинен в убийстве донесшего на него заключенного и приговорен к смертной казни. За дело Генри Янга берётся молодой адвокат Джеймс Стэмфилл...



    Снималось в: США, Франция
    Киностудия: Canal , The Wolper Organization, Warner Bros.
    Время просмотра: 02:02:37
    Перевод текста: Профессиональный многоголосый, авторский одноголосый

    Файл
    Кодек для видео: h.264
    Качество фильма: BDRip-AVC
    Информация о видео: 2845 Кбит/с, 1024x576, 23.976 кадр/с

    Информация о звуке:
    • №1: Русский (АС3, 2 ch, 192 Кбит/с) Профессиональный многоголосый
    • №2: Русский (АС3, 2 ch, 192 Кбит/с) Авторский Андрей Гаврилов
    • №3: Английский (АС3, 2 ch, 192 Кбит/с)

    Субтитры: Английские

    MediaInfo

    --------------------------------------------------------------------
    x264 info: frame I:945 Avg QP:15.11 size: 67029
    x264 info: frame P:37893 Avg QP:17.69 size: 29162
    x264 info: frame B:137563 Avg QP:19.83 size: 10510
    --------------------------------------------------------------------

    Полное имя : Murder.in.the.First.1994.x264.BDRip-AVC.0ptimus.mkv
    Формат : Matroska
    Версия формата : Version 2
    Размер файла : 2,93 Гбайт
    Продолжительность : 2 ч. 2 м.
    Общий поток : 3421 Кбит/сек
    Название фильма : Убийство первой степени | Murder in the First 1995 -=BDRip (AVC) by 0ptimus=-
    Дата кодирования : UTC 2014-01-26 14:14:47
    Программа кодирования : mkvmerge v6.6.0 (;The Edge Of The In Between;) built on Dec 1 2013 17:55:00
    Библиотека кодирования : libebml v1.3.0 libmatroska v1.4.1

    Видео
    Идентификатор : 1
    Формат : AVC
    Формат/Информация : Advanced Video Codec
    Профиль формата : High@L4.1
    Параметр CABAC формата : Да
    Параметр ReFrames формата : 9 кадров
    Идентификатор кодека : V_MPEG4/ISO/AVC
    Продолжительность : 2 ч. 2 м.
    Битрейт : 2845 Кбит/сек
    Ширина : 1024 пикселя
    Высота : 576 пикселей
    Соотношение сторон : 16:9
    Режим частоты кадров : Постоянный
    Частота кадров : 23,976 кадра/сек
    Цветовое пространство : YUV
    Субдискретизация насыщенности : 4:2:0
    Битовая глубина : 8 бит
    Тип развёртки : Прогрессивная
    Бит/(Пиксели*Кадры) : 0.201
    Размер потока : 2,38 Гбайт (81%)
    Заголовок : Rip by 0ptimus
    Библиотека кодирования : x264 core 130 r2273 b3065e6
    Настройки программы : cabac=1 / ref=9 / deblock=1:-3:-3 / analyse=0x3:0x113 / me=umh / subme=10 / psy=1 / psy_rd=1.00:0.20 / mixed_ref=1 / me_range=32 / chroma_me=1 / trellis=2 / 8x8dct=1 / cqm=0 / deadzone=21,11 / fast_pskip=0 / chroma_qp_offset=-3 / threads=3 / lookahead_threads=1 / sliced_threads=0 / nr=0 / decimate=0 / interlaced=0 / bluray_compat=0 / constrained_intra=0 / bframes=7 / b_pyramid=2 / b_adapt=2 / b_bias=0 / direct=3 / weightb=1 / open_gop=0 / weightp=2 / keyint=240 / keyint_min=23 / scenecut=40 / intra_refresh=0 / rc_lookahead=40 / rc=2pass / mbtree=0 / bitrate=2845 / ratetol=1.0 / qcomp=0.60 / qpmin=0 / qpmax=69 / qpstep=4 / cplxblur=20.0 / qblur=0.5 / vbv_maxrate=50000 / vbv_bufsize=50000 / nal_hrd=none / ip_ratio=1.40 / pb_ratio=1.30 / aq=1:1.00
    Язык : English
    Default : Да
    Forced : Да

    Аудио #1
    Идентификатор : 2
    Формат : AC-3
    Формат/Информация : Audio Coding 3
    Расширение режима : CM (complete main)
    Параметр Endianness формата : Big
    Идентификатор кодека : A_AC3
    Продолжительность : 2 ч. 2 м.
    Вид битрейта : Постоянный
    Битрейт : 192 Кбит/сек
    Каналы : 2 канала
    Расположение каналов : Front: L R
    Частота : 48,0 КГц
    Битовая глубина : 16 бит
    Метод сжатия : С потерями
    Размер потока : 168 Мбайт (6%)
    Заголовок : Многоголосый закадровый AC3 2.0 @ 192 kbps
    Язык : Russian
    Default : Да
    Forced : Да

    Аудио #2
    Идентификатор : 3
    Формат : AC-3
    Формат/Информация : Audio Coding 3
    Расширение режима : CM (complete main)
    Параметр Endianness формата : Big
    Идентификатор кодека : A_AC3
    Продолжительность : 2 ч. 2 м.
    Вид битрейта : Постоянный
    Битрейт : 192 Кбит/сек
    Каналы : 2 канала
    Расположение каналов : Front: L R
    Частота : 48,0 КГц
    Битовая глубина : 16 бит
    Метод сжатия : С потерями
    Размер потока : 168 Мбайт (6%)
    Заголовок : Авторский Андрей Гаврилов AC3 2.0 @ 192 kbps
    Язык : Russian
    Default : Нет
    Forced : Нет

    Аудио #3
    Идентификатор : 4
    Формат : AC-3
    Формат/Информация : Audio Coding 3
    Расширение режима : CM (complete main)
    Параметр Endianness формата : Big
    Идентификатор кодека : A_AC3
    Продолжительность : 2 ч. 2 м.
    Вид битрейта : Постоянный
    Битрейт : 192 Кбит/сек
    Каналы : 2 канала
    Расположение каналов : Front: L R
    Частота : 48,0 КГц
    Битовая глубина : 16 бит
    Метод сжатия : С потерями
    Размер потока : 168 Мбайт (6%)
    Заголовок : AC3 2.0 @ 192 kbps
    Язык : English
    Default : Нет
    Forced : Нет

    Текст
    Идентификатор : 5
    Формат : UTF-8
    Идентификатор кодека : S_TEXT/UTF8
    Идентификатор кодека/Информация : UTF-8 Plain Text
    Язык : English
    Default : Нет
    Forced : Нет

    Меню
    00:00:00.000 : en:Chapter 1
    00:03:13.526 : en:Chapter 2
    00:11:24.934 : en:Chapter 3
    00:17:37.014 : en:Chapter 4
    00:22:08.535 : en:Chapter 5
    00:24:55.785 : en:Chapter 6
    00:29:16.963 : en:Chapter 7
    00:32:33.451 : en:Chapter 8
    00:33:22.959 : en:Chapter 9
    00:35:39.053 : en:Chapter 10
    00:37:01.969 : en:Chapter 11
    00:38:57.001 : en:Chapter 12
    00:39:58.479 : en:Chapter 13
    00:43:42.202 : en:Chapter 14
    00:48:34.119 : en:Chapter 15
    00:51:56.029 : en:Chapter 16
    00:54:15.627 : en:Chapter 17
    00:56:32.722 : en:Chapter 18
    00:58:26.920 : en:Chapter 19
    01:00:54.067 : en:Chapter 20
    01:04:21.983 : en:Chapter 21
    01:07:47.480 : en:Chapter 22
    01:11:33.539 : en:Chapter 23
    01:14:38.557 : en:Chapter 24
    01:16:26.290 : en:Chapter 25
    01:20:01.505 : en:Chapter 26
    01:25:12.440 : en:Chapter 27
    01:27:52.558 : en:Chapter 28
    01:30:24.544 : en:Chapter 29
    01:35:40.693 : en:Chapter 30
    01:37:53.242 : en:Chapter 31
    01:41:43.097 : en:Chapter 32
    01:49:19.094 : en:Chapter 33
    01:51:34.270 : en:Chapter 34
    01:53:34.933 : en:Chapter 35
    01:54:59.350 : en:Chapter 36
    01:56:21.975 : en:Chapter 37
    01:58:25.098 : en:Chapter 38
    02:02:37.141 : en:Chapter 39
    Скриншоты для ознакомления




    Релиз подготовил:
    Размер скачиваемого торрента: 2.93 GB (3146127768 Bytes)

    Убийство первой степени / Murder in the First (1995) BDRip-AVC от 0ptimus | P, A торрент скачать бесплатно
    загрузка...
    Рейтинг →
     (голосов: 1, оценка 3/5, голосовать можно 1 раз )

    Другие торренты по теме:

  • Убийство первой степени / Murder in the First (1995) BDRip от HQCLUB торрент скачать бесплатно
  • Убийство первой степени / Murder in the First (1995) BDRip 720p от Leonardo and Scarabey | P2 | НТВ скачать через торрент бесплатно
  • Убийство первой степени / Murder in the First (1995) HDRip от Scarabey | Р торрент скачать бесплатно
  • Убийство первой степени / Без Смягчающих Обстоятельств / First Degree (1995) DVDRip от FilmRus | А скачать через торрент бесплатно
  • Убийство первой степени / Murder in the First скачать через торрент бесплатно
  • Убийство первой степени / Murder in the First (2014) WEB-DLRip | L2 скачать через торрент бесплатно
  • Убийство первой степени / Murder in the First (2015) HDTVRip 1080p | OMSKBIRD records скачать торрент бесплатно
  • Убийство первой степени / Murder in the First (2015) HDTVRip | OMSKBIRD records скачать торрент бесплатно


    • Комментарии (0):

      Информация

      Информация

        Посетители, находящиеся в группе Гости, не могут оставлять комментарии в данной новости.

        ↓ Меню



        ↓ Опрос

        А Вы добавили сайт в закладки?
        Да
        Не


        Top 10 за неделю (Фильмы)