.
Авторизация | Регистрация
» » К сокровищам авиакатастрофы / Гонка к Янки Зефиру / Race for the Yankee Zephyr (1981) BDRemux 1080p от MediaClub торрент скачать бесплатно




    К сокровищам авиакатастрофы / Гонка к Янки Зефиру / Race for the Yankee Zephyr (1981) BDRemux 1080p от MediaClub торрент скачать бесплатно

    Опубликовал: Админ | Дата: 27-02-2015, 11:10 | Просмотров: 302



    Детально о кино
    Русское название: К сокровищам авиакатастрофы (Гонка к Янки Зефиру)
    Русское название в мировом прокате: Race for the Yankee Zephyr
    Создали в: 1981
    Категория жанра: Боевик, драма, приключения
    Главный режиссер: Дэвид Хеммингс
    Актеры: Кен Уол, Лесли Энн Уоррен, Дональд Плезенс, Джордж Пеппард, Бруно Лоуренс, Грант Тилли, Роберт Брюс, Гарри Разерфорд-Джонс, Тони Спаркс, Кларк Уокингтон

    Сюжет: В озере, в высокогорьях Новой Зеландии, охотник Гибби Гибсон обнаруживает самолет потерпевший крушение во времена Второй Мировой Войны. Когда он рассказывает об этом, гангстеры начинают преследовать его, угрожая ему и его дочери, потому что они знают, где находятся 50 миллионов долларов пропавшие при крушении. Пилот вертолета Барни, рискуя своей жизнью, помогает Гибби бороться с ними...




    Снималось в: Австралия, Новая Зеландия, США
    Киностудия: Drake Films Ltd., Endeavour Productions, Gupta Film Services
    Время просмотра: 01:49:50
    Перевод текста: Дублированный, профессиональный многоголосый, профессиональный двухголосый, авторский одноголосый

    Файл
    Качество фильма: Blu-ray Remux 1080p
    Информация о видео: MPEG-4 AVC, 34994 Кбит/с, 1920x1080, 23.976 кадр/с
    Информация о звуке #1: Русский (AC3, 2 ch, 192 Кбит/с) / Профессиональный многоголосый (R5)
    Информация о звуке #2: Русский (AC3, 2 ch, 192 Кбит/с) / Дублированный (Комбо дубляж)
    Информация о звуке #3: Русский (AC3, 2 ch, 192 Кбит/с) / Профессиональный двухголосый (НТВ)
    Информация о звуке #4: Русский (AC3, 2 ch, 192 Кбит/с) / Авторский одноголосый (Ю. Немахов)
    Информация о звуке #5: Английский (DTS-HD MA, 2 ch, 1733 Кбит/с)
    Субтитры: Русские

    Скриншоты для ознакомления


    MI
    Общее
    Уникальный идентификатор : 229403067483956097714458659435793015932 (0xAC956C779D2A59A0A6CEFE0992DAE47C)
    Полное имя : D:Mои раздачиRace.for.the.Yankee.Zephyr.1981.BDRemux.(1080p)-MediaClub.mkv
    Формат : Matroska
    Версия формата : Version 4 / Version 2
    Размер файла : 28,7 Гбайт
    Продолжительность : 1 ч. 49 м.
    Режим общего битрейта : Переменный
    Общий поток : 37,4 Мбит/сек
    Название фильма : -=MediaClub-kaspr=-
    Дата кодирования : UTC 2014-01-29 08:21:17
    Программа кодирования : mkvmerge v6.1.0 (;Old Devil;) built on Mar 4 2013 09:10:42
    Библиотека кодирования : libebml v1.3.0 libmatroska v1.4.0

    Видео
    Идентификатор : 1
    Формат : AVC
    Формат/Информация : Advanced Video Codec
    Профиль формата : High@L4.1
    Параметр CABAC формата : Да
    Параметр ReFrames формата : 4 кадра
    Идентификатор кодека : V_MPEG4/ISO/AVC
    Продолжительность : 1 ч. 49 м.
    Вид битрейта : Постоянный
    Номинальный битрейт : 35,0 Мбит/сек
    Ширина : 1920 пикселей
    Высота : 1080 пикселей
    Соотношение сторон : 16:9
    Режим частоты кадров : Постоянный
    Частота кадров : 23,976 кадра/сек
    Стандарт вещания : NTSC
    Цветовое пространство : YUV
    Субдискретизация насыщенности : 4:2:0
    Битовая глубина : 8 бит
    Тип развёртки : Прогрессивная
    Бит/(Пиксели*Кадры) : 0.704
    Заголовок : -=MediaClub-kaspr=-
    Default : Да
    Forced : Нет
    Основные цвета : BT.709
    Характеристики трансфера : BT.709
    Коэффициенты матрицы : BT.709

    Аудио #1
    Идентификатор : 2
    Формат : AC-3
    Формат/Информация : Audio Coding 3
    Расширение режима : CM (complete main)
    Параметр Endianness формата : Big
    Идентификатор кодека : A_AC3
    Продолжительность : 1 ч. 49 м.
    Вид битрейта : Постоянный
    Битрейт : 192 Кбит/сек
    Каналы : 2 канала
    Расположение каналов : Front: L R
    Частота : 48,0 КГц
    Битовая глубина : 16 бит
    Метод сжатия : С потерями
    Размер потока : 151 Мбайт (1%)
    Заголовок : MVO (R5)
    Язык : Russian
    Default : Да
    Forced : Нет

    Аудио #2
    Идентификатор : 3
    Формат : AC-3
    Формат/Информация : Audio Coding 3
    Расширение режима : CM (complete main)
    Параметр Endianness формата : Big
    Идентификатор кодека : A_AC3
    Продолжительность : 1 ч. 49 м.
    Вид битрейта : Постоянный
    Битрейт : 192 Кбит/сек
    Каналы : 2 канала
    Расположение каналов : Front: L R
    Частота : 48,0 КГц
    Битовая глубина : 16 бит
    Метод сжатия : С потерями
    Размер потока : 151 Мбайт (1%)
    Заголовок : Дублированный (комбо дубляж)
    Язык : Russian
    Default : Нет
    Forced : Нет

    Аудио #3
    Идентификатор : 4
    Формат : AC-3
    Формат/Информация : Audio Coding 3
    Расширение режима : CM (complete main)
    Параметр Endianness формата : Big
    Идентификатор кодека : A_AC3
    Продолжительность : 1 ч. 49 м.
    Вид битрейта : Постоянный
    Битрейт : 192 Кбит/сек
    Каналы : 2 канала
    Расположение каналов : Front: L R
    Частота : 48,0 КГц
    Битовая глубина : 16 бит
    Метод сжатия : С потерями
    Размер потока : 151 Мбайт (1%)
    Заголовок : DVO (HTB)
    Язык : Russian
    Default : Нет
    Forced : Нет

    Аудио #4
    Идентификатор : 5
    Формат : AC-3
    Формат/Информация : Audio Coding 3
    Расширение режима : CM (complete main)
    Параметр Endianness формата : Big
    Идентификатор кодека : A_AC3
    Продолжительность : 1 ч. 49 м.
    Вид битрейта : Постоянный
    Битрейт : 192 Кбит/сек
    Каналы : 2 канала
    Расположение каналов : Front: L R
    Частота : 48,0 КГц
    Битовая глубина : 16 бит
    Метод сжатия : С потерями
    Размер потока : 151 Мбайт (1%)
    Заголовок : AVO (Ю.Немахов)
    Язык : Russian
    Default : Нет
    Forced : Нет

    Аудио #5
    Идентификатор : 6
    Формат : DTS
    Формат/Информация : Digital Theater Systems
    Профиль формата : MA / Core
    Режим : 16
    Параметр Endianness формата : Big
    Идентификатор кодека : A_DTS
    Продолжительность : 1 ч. 49 м.
    Вид битрейта : Переменный
    Битрейт : Неизвестно / 1509 Кбит/сек
    Каналы : 2 канала
    Расположение каналов : Front: L R
    Частота : 48,0 КГц
    Битовая глубина : 16 бит
    Метод сжатия : Без потерь / Lossy
    Язык : English
    Default : Нет
    Forced : Нет

    Текст
    Идентификатор : 7
    Формат : UTF-8
    Идентификатор кодека : S_TEXT/UTF8
    Идентификатор кодека/Информация : UTF-8 Plain Text
    Язык : Russian
    Default : Нет
    Forced : Нет

    Меню
    00:00:00.000 : en:Chapter 01
    00:09:12.843 : en:Chapter 02
    00:17:58.786 : en:Chapter 03
    00:25:58.139 : en:Chapter 04
    00:35:46.477 : en:Chapter 05
    00:46:32.206 : en:Chapter 06
    00:54:44.864 : en:Chapter 07
    01:05:06.444 : en:Chapter 08
    01:12:06.447 : en:Chapter 09
    01:20:56.059 : en:Chapter 10
    01:31:04.292 : en:Chapter 11
    01:39:03.270 : en:Chapter 12
    01:49:50.584 : en:Chapter 13


    Релиз: |
    Залил: kaspr
    Размер скачиваемого торрента: 28.71 GB (30827368840 Bytes)

    К сокровищам авиакатастрофы / Гонка к Янки Зефиру / Race for the Yankee Zephyr (1981) BDRemux 1080p от MediaClub торрент скачать бесплатно
    загрузка...
    Рейтинг →
     (голосов: 1, оценка 4/5, голосовать можно 1 раз )

    Другие торренты по теме:

  • Феи: Потерянное сокровище / Tinker Bell and the Lost Treasure (2009) BDRip 1080p торрент скачать бесплатно
  • Остров сокровищ Маппетов / Muppet Treasure Island (1996) HDTVRip торрент скачать бесплатно
  • Сокровище ацтеков / Der Schatz der Azteken (1965) BDRip 1080p | P торрент скачать бесплатно
  • Сокровище нации: Дилогия / National Treasure: Dilogy (2004-2007) BDRip 1080p торрент скачать бесплатно
  • Сокровище Амазонки / The Rundown (2003) BDRip 1080p от FREEISLAND торрент скачать бесплатно
  • Планета сокровищ / Treasure Planet (2002) BDRip-AVC | iPad торрент скачать бесплатно
  • OST - Планета сокровищ / Treasure Planet (2002) MP3 торрент скачать бесплатно
  • Остров сокровищ (1988) DVDRip | Полная реставрация торрент скачать бесплатно


    • Комментарии (0):

      Информация

      Информация

        Посетители, находящиеся в группе Гости, не могут оставлять комментарии в данной новости.

        ↓ Меню



        ↓ Опрос

        А Вы добавили сайт в закладки?
        Да
        Не


        Top 10 за неделю (Фильмы)

        Мой парень – киллер / Mr. Right (2015) WEB-DL 1080p | L скачать торрент бесплатно

        (просмотров: 331)
        Ёлки 5 (2016) WEB-DLRip скачать торрент бесплатно

        (просмотров: 331)
        Разрушение / Demolition (2015) BDRemux 1080p от ExKinoRay | L скачать торрент бесплатно

        (просмотров: 301)
        Экипаж (2016) BDRip от New-Team | D | Лицензия скачать торрент бесплатно
        АНОНСЫ МОИХ РАЗДАЧ
        (просмотров: 301)
        Экипаж (2016) BDRip от New-Team | D | Лицензия скачать торрент бесплатно
        АНОНСЫ МОИХ РАЗДАЧ
        (просмотров: 271)
        Гений / Genius (2016) WEB-DLRip 1080p | Звук TS скачать торрент бесплатно

        (просмотров: 161)
        Кухня (1-5 сезоны: 1-100 серии из 100 + 2 бонуса) / 2012-2015 / РУ / DVDRip, WEB-DLRip скачать торрент бесплатно

        (просмотров: 151)
        Кухня (2015) SATRip скачать торрент бесплатно
        Кухня ? Кухня (2015) SATRip скачать торрент бесплатно
        (просмотров: 141)
        Дуэлянт (2016) WEB-DLRip от Scarabey | iTunes скачать торрент бесплатно

        (просмотров: 131)
        Демон внутри / Вскрытие Джейн Доу / The Autopsy of Jane Doe (2016) WEB-DLRip от Scarabey | P скачать торрент бесплатно
        Мы В КОНТАКТЕ =)
        (просмотров: 111)