.
Авторизация | Регистрация
» » Каратель: Грязная стирка / The Punisher: Dirty Laundry (2012) WEBRip-AVC | L1 торрент скачать бесплатно




    Каратель: Грязная стирка / The Punisher: Dirty Laundry (2012) WEBRip-AVC | L1 торрент скачать бесплатно

    Опубликовал: Админ | Дата: 27-02-2015, 11:10 | Просмотров: 396



    Русское название: Каратель: Грязная стирка
    Русское название в мировом прокате: The Punisher: Dirty Laundry
    Создали в: 2012
    Снималось в: США
    Категория жанра: короткометражка , боевик, драма, криминал
    Время просмотра: 00:10:14
    Перевод текста: Любительский (одноголосый) Grendalf
    Субтитры подготовлены: нет

    Главный режиссер: Фил Джоану

    Актеры: Томас Джейн, Рон Перлман, Сэмми Ротиби, Брэнди Таккер, Карлин Уолкер

    Сюжет:
    Фрэнк Кастл просыпается в своем фургоне в захудалом районе города, чтобы отнести грязное белье в прачечную. По дороге к ней Фрэнк становится свидетелем нападения бандитов на проституток. После того, как эти же бандиты напали на маленького мальчика, Фрэнк идет в близлежащий магазин и покупает бутылку Jack Daniel`s…



    Качество фильма: WEBRip-AVC
    Тип видео: MKV
    Информация о видео: MPEG-4/AVC High@L4.1, 1024x352, ~ 469 Kbps, 0.036 bit/pix
    Информация о звуке: MP3, 44.1 KHz, 256 Kbps, 2 channels

    MediaInfo
    Format : Matroska
    Format version : Version 2
    File size : 54.2 MiB
    Duration : 10mn 14s
    Overall bit rate : 740 Kbps
    Encoded date : UTC 2014-01-29 04:12:32
    Writing application : mkvmerge v5.3.0 (;I could have danced;) built on Feb 9 2012 10:38:07
    Writing library : libebml v1.2.3 libmatroska v1.3.0
    Attachment : Yes

    Video
    ID : 1
    Format : AVC
    Format/Info : Advanced Video Codec
    Format profile : High@L4.1
    Format settings, CABAC : Yes
    Format settings, ReFrames : 5 frames
    Codec ID : V_MPEG4/ISO/AVC
    Duration : 10mn 14s
    Bit rate : 469 Kbps
    Width : 1 024 pixels
    Height : 352 pixels
    Display aspect ratio : 2.909
    Frame rate mode : Constant
    Frame rate : 23.976 fps
    Color space : YUV
    Chroma subsampling : 4:2:0
    Bit depth : 8 bits
    Scan type : Progressive
    Bits/(Pixel*Frame) : 0.054
    Stream size : 34.4 MiB (63%)
    Writing library : x264 core 133 r2334 a3ac64b
    Encoding settings : cabac=1 / ref=5 / deblock=1:-2:-2 / analyse=0x3:0x113 / me=umh / subme=10 / psy=1 / psy_rd=1.00:0.15 / mixed_ref=1 / me_range=32 / chroma_me=1 / trellis=2 / 8x8dct=1 / cqm=0 / deadzone=21,11 / fast_pskip=1 / chroma_qp_offset=-3 / threads=12 / lookahead_threads=1 / sliced_threads=0 / nr=0 / decimate=1 / interlaced=0 / bluray_compat=0 / constrained_intra=0 / bframes=5 / b_pyramid=2 / b_adapt=2 / b_bias=0 / direct=1 / weightb=1 / open_gop=0 / weightp=2 / keyint=240 / keyint_min=22 / scenecut=40 / intra_refresh=0 / rc_lookahead=40 / rc=crf / mbtree=1 / crf=23.0 / qcomp=0.60 / qpmin=0 / qpmax=69 / qpstep=4 / ip_ratio=1.40 / aq=1:1.00
    Language : English
    Default : Yes
    Forced : No

    Audio
    ID : 2
    Format : MPEG Audio
    Format version : Version 1
    Format profile : Layer 3
    Codec ID : A_MPEG/L3
    Codec ID/Hint : MP3
    Duration : 10mn 14s
    Bit rate mode : Constant
    Bit rate : 256 Kbps
    Channel(s) : 2 channels
    Sampling rate : 44.1 KHz
    Compression mode : Lossy
    Stream size : 18.8 MiB (35%)
    Title : Grendalf
    Language : Russian
    Default : Yes
    Forced : Yes

    Скриншоты для ознакомления

    Размер скачиваемого торрента: 54.23 MB (56859187 Bytes)

    Каратель: Грязная стирка / The Punisher: Dirty Laundry (2012) WEBRip-AVC | L1 торрент скачать бесплатно
    загрузка...
    Рейтинг →
     (голосов: 1, оценка 3/5, голосовать можно 1 раз )

    Другие торренты по теме:

  • Каратель: Грязная стирка / The Punisher: Dirty Laundry (2012) WEBRip 1080 | Точка Zрения скачать через торрент бесплатно
  • Каратель: Грязная стирка / The Punisher: Dirty Laundry (2012) WEBRip 720p | Точка Zрения скачать через торрент бесплатно


    • Комментарии (0):

      Информация

      Информация

        Посетители, находящиеся в группе Гости, не могут оставлять комментарии в данной новости.

        ↓ Меню



        ↓ Опрос

        А Вы добавили сайт в закладки?
        Да
        Не


        Top 10 за неделю (Фильмы)