.
Авторизация | Регистрация
Хочешь лучшие торренты? Добавь свой email!
Добавить
» » Убить дракона / Kill a Dragon (1967) DVDRip | A скачать через торрент бесплатно




    Убить дракона / Kill a Dragon (1967) DVDRip | A скачать через торрент бесплатно

    Опубликовал: Админ | Дата: 27-02-2015, 11:10 | Просмотров: 314






    Снималось в: США
    Создали в: Aubrey Schenck Productions
    Категория жанра: Боевик
    Создали в: 1967

    Время просмотра: 01:31:27


    Перевод текста: Авторский одноголосый закадровый (Яковлев)


    Оригинальная аудиодорожка: Английская

    Главный режиссер: Майкл Д. Мур


    Актеры: Джек Пэланс, Фернандо Ламас, Альдо Рэй, Кэм Тонг, Дон Найт, Ганс Уильям Ли, Ализа Гар, Джуди Дэн, Янг Йип Ванг, Чунг Кай


    Сюжет: Жители небольшой китайской деревушки, расположенной на острове, нанимают команду боевиков во главе с экспертом по боевым искусствам, чтобы избавиться от гангстерской банды терроризирующей деревню.



    Исходник: DVD5 R2

    Тип релиза: DVDRip

    Контейнер: AVI


    Информация о видео: 720x400 (1.80:1), 23.976 fps, XviD ~1886 kbps avg, 0.27 bit/pixel
    Информация о звуке: #1: 48 kHz, AC3 2.0 ~192.00 kbps avg (RUS)
    Информация о звуке: #2: 48 kHz, AC3 2.0 ~128.00 kbps avg (ENG)


    MediaInfo
    Общее
    Полное имя : D:залитьУбить дракона.avi
    Формат : AVI
    Формат/Информация : Audio Video Interleave
    Размер файла : 1,46 Гбайт
    Продолжительность : 1 ч. 31 м.
    Общий поток : 2285 Кбит/сек
    Программа кодирования : VirtualDubMod 1.5.10.2 (build 2540/release)
    Библиотека кодирования : VirtualDubMod build 2540/release

    Видео
    Идентификатор : 0
    Формат : MPEG-4 Visual
    Профиль формата : Advanced Simple@L5
    Параметр BVOP формата : 1
    Параметр QPel формата : Нет
    Параметр GMC формата : Без точки перехода
    Параметр матрицы формата : Default (H.263)
    Идентификатор кодека : XVID
    Идентификатор кодека/Подсказка : XviD
    Продолжительность : 1 ч. 31 м.
    Битрейт : 1887 Кбит/сек
    Ширина : 720 пикселей
    Высота : 400 пикселей
    Соотношение сторон : 16:9
    Частота кадров : 23,976 кадра/сек
    Цветовое пространство : YUV
    Субдискретизация насыщенности : 4:2:0
    Битовая глубина : 8 бит
    Тип развёртки : Прогрессивная
    Метод сжатия : С потерями
    Бит/(Пиксели*Кадры) : 0.273
    Размер потока : 1,21 Гбайт (83%)
    Библиотека кодирования : XviD 1.2.1 (UTC 2008-12-04)

    Аудио #1
    Идентификатор : 1
    Формат : AC-3
    Формат/Информация : Audio Coding 3
    Расширение режима : CM (complete main)
    Параметр Endianness формата : Big
    Идентификатор кодека : 2000
    Продолжительность : 1 ч. 31 м.
    Вид битрейта : Постоянный
    Битрейт : 192 Кбит/сек
    Каналы : 2 канала
    Расположение каналов : Front: L R
    Частота : 48,0 КГц
    Битовая глубина : 16 бит
    Метод сжатия : С потерями
    Размер потока : 126 Мбайт (8%)
    Выравнивание : Разделение по промежуткам
    Продолжительность промежутка : 42 мс. (1,00 видеокадр)
    Время предзагрузки промежутка : 500 мс.

    Аудио #2
    Идентификатор : 2
    Формат : AC-3
    Формат/Информация : Audio Coding 3
    Расширение режима : CM (complete main)
    Параметр Endianness формата : Big
    Идентификатор кодека : 2000
    Продолжительность : 1 ч. 31 м.
    Вид битрейта : Постоянный
    Битрейт : 192 Кбит/сек
    Каналы : 2 канала
    Расположение каналов : Front: L R
    Частота : 48,0 КГц
    Битовая глубина : 16 бит
    Метод сжатия : С потерями
    Размер потока : 126 Мбайт (8%)
    Выравнивание : Разделение по промежуткам
    Продолжительность промежутка : 42 мс. (1,00 видеокадр)
    Время предзагрузки промежутка : 500 мс.






    Скриншоты для ознакомления


    Автор рипа:
    Залил: YArl
    Размер скачиваемого торрента: 1.46 GB (1567182848 Bytes)

    Убить дракона / Kill a Dragon (1967) DVDRip | A скачать через торрент бесплатно
    загрузка...
    Рейтинг →
     (голосов: 1, оценка 4/5, голосовать можно 1 раз )

    Другие торренты по теме:

  • Убить пересмешника / To Kill a Mockingbird (1962) HDRip-AVC
  • Убить Боба / Killer Bean Forever (2009) BDRip 1080p от FREEISLAND
  • Убить Билла: Дилогия / Kill Bill: Dilogy (2003-2004) НDRip
  • Убить Дрозда (2013) SATRip от РиперАМ
  • Убить Дрозда (2013) SATRip от Files-x
  • Убить Билла / Kill Bill: Vol. 1 (2003) BDRip 720p от leonardo 59
  • Убить Билла 2 / Kill Bill: Vol. 2 (2004) BDRip 720p от leonardo 59
  • Убить Зои / Killing Zoe (1993) BDRip 720p от leonardo 59


    • Комментарии (0):

      Информация

      Информация

        Посетители, находящиеся в группе Гости, не могут оставлять комментарии в данной новости.

        ↓ Меню



        ↓ Опрос

        А Вы добавили сайт в закладки?
        Да
        Не


        Top 10 за месяц (Фильмы)