.
Авторизация | Регистрация
» » Благослови меня, Ультима / Bless Me, Ultima (2013) WEB-DL 720p от CINEMANIA | D скачать через торрент бесплатно




    Благослови меня, Ультима / Bless Me, Ultima (2013) WEB-DL 720p от CINEMANIA | D скачать через торрент бесплатно

    Опубликовал: Админ | Дата: 27-02-2015, 11:10 | Просмотров: 266



    Детально о кино
    Русское название: Благослови меня, Ультима
    Русское название в мировом прокате: Bless Me, Ultima
    Создали в: 2013
    Категория жанра: драма, военный
    Главный режиссер: Карл Франклин
    Актеры: Мириам Колон, Люк Ганалон, Бенито Мартинес, Долорес Эредиа, Кастуло Герра, Хоакин Косио, Мануэль Рульфо, Реко Морено, Луис Бордонада, Джозеф А. Гарсиа

    Сюжет фильма:
    Экранизация одноименной книги Рудольфо Анайи, в которой рассказывается об отношениях семилетнего мальчика Антонио и женщины-целительницы по имени Ультима. События картины разворачиваются в Нью-Мексико в начале 1940-х годов. В то время как весь мир погружен в войну, маленький Антонио сталкивается с неоднозначными событиями, происходящими вокруг него. Его жизнь навсегда резко меняется после внезапного прибытия Ультимы, женщины со сверхъестественными способностями, которая несет миссию добра. В то время как Ультима вдохновляет Антонио интересоваться окружающим его миром с совсем иной точки зрения, мальчик становится свидетелем невозможных на вид событий, которые оказывают глубокое влияние на его понятие богословия и на всю его дальнейшую судьбу.



    Снималось в: США
    Время просмотра: 01:45:54
    Тип перевода: Дублированное TV1000 Premium HD

    Файл
    Тип видео: MKV
    Качество фильма: WEB-DL 720p PHD
    Информация о видео: 4014 kb/s, 1280x540
    Информация о звуке: Russian: AC3, 192 kb/s (2 ch) / English: AC3, AC3, 384 kb/s (6 ch)
    Субтитры: English
    Дополнительно: Сохранены оригинальные чаптеры как на Blu-Ray
    Размер скачиваемого торрента: 3.46 GB
    Скачать: Сэмпл

    Релиз группы:




    NFO
    Общее
    CINEMANIABless.Me.Ultima.2013.WEB-DL.720p.CINEMANIA.mkv
    Формат : Matroska
    Версия формата : Version 4 / Version 2
    Размер файла : 3,46 Гбайт
    Продолжительность : 1 ч. 45 м.
    Общий поток : 4683 Кбит/сек
    Название фильма : Release Group CINEMANIA
    Дата кодирования : UTC 2014-01-30 14:53:45
    Программа кодирования : mkvmerge v6.7.0 (;Back to the Ground;) 64bit built on Jan 8 2014 15:10:52
    Библиотека кодирования : libebml v1.3.0 libmatroska v1.4.1

    Видео
    Идентификатор : 1
    Формат : AVC
    Формат/Информация : Advanced Video Codec
    Профиль формата : Main@L3.1
    Параметр CABAC формата : Нет
    Параметр ReFrames формата : 2 кадра
    Идентификатор кодека : V_MPEG4/ISO/AVC
    Продолжительность : 1 ч. 45 м.
    Битрейт : 4014 Кбит/сек
    Ширина : 1280 пикселей
    Высота : 540 пикселей
    Соотношение сторон : 2,40:1
    Режим частоты кадров : Постоянный
    Частота кадров : 23,976 кадра/сек
    Цветовое пространство : YUV
    Субдискретизация насыщенности : 4:2:0
    Битовая глубина : 8 бит
    Тип развёртки : Прогрессивная
    Бит/(Пиксели*Кадры) : 0.242
    Размер потока : 2,97 Гбайт (86%)
    Заголовок : Release Group CINEMANIA
    Язык : English
    Default : Да
    Forced : Нет
    Основные цвета : BT.709
    Характеристики трансфера : BT.709
    Коэффициенты матрицы : BT.709

    Аудио #1
    Идентификатор : 2
    Формат : AC-3
    Формат/Информация : Audio Coding 3
    Расширение режима : CM (complete main)
    Параметр Endianness формата : Big
    Идентификатор кодека : A_AC3
    Продолжительность : 1 ч. 45 м.
    Вид битрейта : Постоянный
    Битрейт : 192 Кбит/сек
    Каналы : 2 канала
    Расположение каналов : Front: L R
    Частота : 48,0 КГц
    Битовая глубина : 16 бит
    Метод сжатия : С потерями
    Размер потока : 145 Мбайт (4%)
    Заголовок : Дубляж (TV1000 Premium HD)
    Язык : Russian
    Default : Да
    Forced : Да

    Аудио #2
    Идентификатор : 3
    Формат : AC-3
    Формат/Информация : Audio Coding 3
    Расширение режима : CM (complete main)
    Параметр Endianness формата : Big
    Идентификатор кодека : A_AC3
    Продолжительность : 1 ч. 45 м.
    Вид битрейта : Постоянный
    Битрейт : 384 Кбит/сек
    Каналы : 6 каналов
    Расположение каналов : Front: L C R, Side: L R, LFE
    Частота : 48,0 КГц
    Битовая глубина : 16 бит
    Метод сжатия : С потерями
    Размер потока : 291 Мбайт (8%)
    Язык : English
    Default : Нет
    Forced : Нет

    Текст
    Идентификатор : 4
    Формат : UTF-8
    Идентификатор кодека : S_TEXT/UTF8
    Идентификатор кодека/Информация : UTF-8 Plain Text
    Язык : English
    Default : Нет
    Forced : Нет

    Меню
    00:00:00.000 : en:1
    00:03:08.000 : en:2
    00:13:34.000 : en:3
    00:19:10.000 : en:4
    00:23:12.000 : en:5
    00:31:52.000 : en:6
    00:36:57.000 : en:7
    00:43:45.000 : en:8
    00:48:31.000 : en:9
    00:55:16.000 : en:10
    01:02:39.000 : en:11
    01:11:16.000 : en:12
    01:17:03.000 : en:13
    01:21:19.000 : en:14
    01:28:16.000 : en:15
    01:35:08.000 : en:16


    Залил: DGEKIGAN
    Размер скачиваемого торрента: 3.46 GB (3719666646 Bytes)

    Благослови меня, Ультима / Bless Me, Ultima (2013) WEB-DL 720p от CINEMANIA | D скачать через торрент бесплатно
    загрузка...
    Рейтинг →
     (голосов: 1, оценка 5/5, голосовать можно 1 раз )

    Другие торренты по теме:

  • Благослови меня, Ультима / Bless Me, Ultima (2013) WEB-DLRip | P скачать торрент бесплатно


    • Комментарии (0):

      Информация

      Информация

        Посетители, находящиеся в группе Гости, не могут оставлять комментарии в данной новости.

        ↓ Меню



        ↓ Опрос

        А Вы добавили сайт в закладки?
        Да
        Не


        Top 10 за неделю (Фильмы)