.
Авторизация | Регистрация
» » Игра Эндера / Enders Game (2013) BDRip 720p | Чистый звук скачать через торрент бесплатно




    Игра Эндера / Enders Game (2013) BDRip 720p | Чистый звук скачать через торрент бесплатно

    Опубликовал: Админ | Дата: 27-02-2015, 11:10 | Просмотров: 299





    Детально о кино
    Русское название: Игра Эндера
    Русское название в мировом прокате: Ender;s Game
    Создали в: 2013
    Категория жанра: фантастика, боевик, приключения
    Главный режиссер: Гэвин Худ
    Актеры: Эйса Баттерфилд, Харрисон Форд, Бен Кингсли, Виола Дэвис, Хейли Стайнфелд, Эбигейл Бреслин, Арамис Найт, Сурадж Партха, Мойзес Ариас, Кайлин Рамбо

    Сюжет фильма: Действие ленты происходит в 2136 году. Будущее Земли не так радужно, как представлялось оно людям. Инопланетные расы начали постоянно вторгаться на людскую, стараясь уничтожить всё человечество. Элитная школа подготавливает самых крепких ребят для борьбы с инопланетянами. Главный герой ленты один из учеников подросток Эндрю Виггин, которого будет готовить полковник Хайрам Графф и полководец Мэзер Ракхейм изменит судьбу всего человечества. И мир ждет с нетерпением выхода этой кинокартины, ведь в своей основе она содержит одноименный рассказ от Орсона Скотта Карда, у которого уже есть многомиллионная аудитория почитателей. Станет ли кинокартина такая же уникальная и непревзойденная как книга, судить лишь зрителю…



    Снималось в: США / Summit Entertainment
    Время просмотра: 01:54:48
    Тип перевода: Дублированное Чистый звук

    Файл
    Тип видео: MKV
    Качество фильма: BDRip 720p CHD
    Информация о видео: 4790 kb/s, 1280x534
    Информация о звуке: Russian: AC3, 320 kb/s (2 ch) / English: DTS, 1510 kb/s (6 ch)

    Семпл





    MI

    Format : Matroska
    Format version : Version 2
    File size : 5.26 GiB
    Duration : 1h 53mn
    Overall bit rate : 6 620 Kbps
    Encoded date : UTC 2014-01-30 11:02:28
    Writing application : mkvmerge v6.7.0 (;Back to the Ground;) 32bit built on Jan 8 2014 15:03:17
    Writing library : libebml v1.3.0 libmatroska v1.4.1

    Video
    ID : 1
    Format : AVC
    Format/Info : Advanced Video Codec
    Format profile : High@L4.1
    Format settings, CABAC : Yes
    Format settings, ReFrames : 11 frames
    Codec ID : V_MPEG4/ISO/AVC
    Duration : 1h 53mn
    Bit rate : 4 790 Kbps
    Width : 1 280 pixels
    Height : 534 pixels
    Display aspect ratio : 2.40:1
    Frame rate : 23.976 fps
    Color space : YUV
    Chroma subsampling : 4:2:0
    Bit depth : 8 bits
    Scan type : Progressive
    Bits/(Pixel*Frame) : 0.292
    Stream size : 3.70 GiB (70%)
    Title : Enders.Game.2013.BluRay.720p.DTS.x264-CHD
    Writing library : x264 core 135 r2345 f0c1c53
    Encoding settings : cabac=1 / ref=11 / deblock=1:-3:-3 / analyse=0x3:0x113 / me=umh / subme=10 / psy=1 / psy_rd=1.00:0.05 / mixed_ref=1 / me_range=32 / chroma_me=1 / trellis=2 / 8x8dct=1 / cqm=0 / deadzone=21,11 / fast_pskip=0 / chroma_qp_offset=-2 / threads=8 / lookahead_threads=1 / sliced_threads=0 / nr=0 / decimate=1 / interlaced=0 / bluray_compat=0 / constrained_intra=0 / bframes=5 / b_pyramid=2 / b_adapt=2 / b_bias=0 / direct=3 / weightb=1 / open_gop=0 / weightp=2 / keyint=250 / keyint_min=23 / scenecut=40 / intra_refresh=0 / rc=2pass / mbtree=0 / bitrate=4790 / ratetol=1.0 / qcomp=0.70 / qpmin=0 / qpmax=69 / qpstep=4 / cplxblur=20.0 / qblur=0.5 / ip_ratio=1.40 / pb_ratio=1.30 / aq=2:0.90
    Language : English
    Default : No
    Forced : No

    Audio #1
    ID : 2
    Format : AC-3
    Format/Info : Audio Coding 3
    Mode extension : CM (complete main)
    Format settings, Endianness : Big
    Codec ID : A_AC3
    Duration : 1h 53mn
    Bit rate mode : Constant
    Bit rate : 320 Kbps
    Channel(s) : 2 channels
    Channel positions : Front: L R
    Sampling rate : 48.0 KHz
    Bit depth : 16 bits
    Compression mode : Lossy
    Stream size : 261 MiB (5%)
    Language : Russian
    Default : Yes
    Forced : No

    Audio #2
    ID : 3
    Format : DTS
    Format/Info : Digital Theater Systems
    Codec ID : A_DTS
    Duration : 1h 53mn
    Bit rate mode : Constant
    Bit rate : 1 510 Kbps
    Channel(s) : 6 channels
    Channel positions : Front: L C R, Side: L R, LFE
    Sampling rate : 48.0 KHz
    Bit depth : 24 bits
    Compression mode : Lossy
    Stream size : 1.20 GiB (23%)
    Title : dts 5.1 1536kbps
    Language : English
    Default : No
    Forced : No
    Скриншоты для ознакомления

    Размер скачиваемого торрента: 5.26 GB (5650527538 Bytes)

    Игра Эндера / Enders Game (2013) BDRip 720p | Чистый звук скачать через торрент бесплатно
    загрузка...
    Рейтинг →
     (голосов: 1, оценка 4/5, голосовать можно 1 раз )

    Другие торренты по теме:

  • Орсон Скотт Кард - Игра Эндера (2009) MP3 торрент скачать бесплатно
  • OST - Игра Эндера / Enders Game (2013) FLAC скачать через торрент бесплатно
  • Игра Эндера (2013) HDRip лицензия торрент скачать бесплатно
  • Игра Эндера / Enders Game (2013) TS торрент скачать бесплатно
  • Игра Эндера / Enders Game (2013) HDTVRip 720p | Звук TS скачать через торрент бесплатно
  • Игра Эндера / Enders Game (2013) HDTVRip | Звук TS скачать через торрент бесплатно
  • Игра Эндера / Enders Game (2013) HDTV 720p | Звук с TS торрент скачать бесплатно
  • Игра Эндера / Enders Game (2013) WEB-DL 1080p | Звук с TS скачать через торрент бесплатно


    • Комментарии (0):

      Информация

      Информация

        Посетители, находящиеся в группе Гости, не могут оставлять комментарии в данной новости.

        ↓ Меню



        ↓ Опрос

        А Вы добавили сайт в закладки?
        Да
        Не


        Top 10 за неделю (Фильмы)