.
Авторизация | Регистрация
Хочешь лучшие торренты? Добавь свой email!
Добавить
» » Перед полуночью / Before Midnight (2013) Blu-Ray Remux 1080p от NovaLan скачать через торрент бесплатно




    Перед полуночью / Before Midnight (2013) Blu-Ray Remux 1080p от NovaLan скачать через торрент бесплатно

    Опубликовал: Админ | Дата: 27-02-2015, 11:10 | Просмотров: 274



    Русское название: Перед полуночью
    Русское название в мировом прокате: Before Midnight
    Создали в: 2013
    Категория жанра: Драма, мелодрама
    Главный режиссер: Ричард Линклейтер
    Актеры: Итэн Хоук, Жюли Дельпи, Шеймас Дэви-Фицпатрик, Дженнифер Прайор, Шарлотта Прайор, Ксения Калогеропулу, Уолтер Лассали, Ариана Лабед, Яннис Пападопулос, Афина Рахель Цангари
    Сюжет фильма:
    Мы встречаем Джесси и Селин еще через 9 лет в Греции. Почти два десятилетия прошло с их первой встречи в поезде, направляющемся в Вену. Место действия — солнечная Греция с восхитительными закатами на море - что может быть чудеснее?! Джесс всё тот же юморист, Селин продолжает спасать мир. И в них столько жизни!


    Снималось в: США, Castle Rock Entertainment, Detour Filmproduction, Faliro House Productions, Sony Pictures Classics, Venture Forth
    Время просмотра: 01:48:54
    Перевод текста: Любительский двухголосый / Авторский одноголосый (Михаил Чадов)

    Кодек для видео: H.264
    Качество фильма: Blu-Ray Remux 1080p
    Информация о видео: MPEG-4 AVC, 29.1 Мбит/с, 1920x1080, 23.976 кадр/с
    Информация о звуке: Русский (AC3, 6 ch, 448 Кбит/с), (DTS, 6 ch, 1510 Кбит/с), английский (DTS-MA, 6 ch, 1561 Кбит/с), английский (AC3, 2 ch, 192 Кбит/с) - Комментарии режиссера
    Субтитры: Русские, английские, французские

    Инфо-файл

    Полное имя : E:Раздачи_EBefore.Midnight.2013.Blu-Ray.Remux.1080p.NovaLan.mkv
    Формат : Matroska
    Версия формата : Version 4 / Version 2
    Размер файла : 25,5 Гбайт
    Продолжительность : 1 ч. 48 м.
    Режим общего битрейта : Переменный
    Общий поток : 33,5 Мбит/сек
    Название фильма : Before Midnight - 2013 - NovaLan
    Дата кодирования : UTC 2014-01-30 08:27:10
    Программа кодирования : mkvmerge v6.7.0 (;Back to the Ground;) 64bit built on Jan 8 2014 15:10:52
    Библиотека кодирования : libebml v1.3.0 libmatroska v1.4.1

    Видео
    Идентификатор : 1
    Формат : AVC
    Формат/Информация : Advanced Video Codec
    Профиль формата : High@L4.1
    Параметр CABAC формата : Да
    Параметр ReFrames формата : 2 кадра
    Идентификатор кодека : V_MPEG4/ISO/AVC
    Продолжительность : 1 ч. 48 м.
    Вид битрейта : Переменный
    Битрейт : 29,1 Мбит/сек
    Ширина : 1920 пикселей
    Высота : 1080 пикселей
    Соотношение сторон : 16:9
    Частота кадров : 23,976 кадра/сек
    Цветовое пространство : YUV
    Субдискретизация насыщенности : 4:2:0
    Битовая глубина : 8 бит
    Тип развёртки : Прогрессивная
    Бит/(Пиксели*Кадры) : 0.585
    Размер потока : 22,1 Гбайт (87%)
    Заголовок : Before Midnight 2013 NovaLan
    Default : Да
    Forced : Нет

    Аудио #1
    Идентификатор : 2
    Формат : AC-3
    Формат/Информация : Audio Coding 3
    Расширение режима : CM (complete main)
    Параметр Endianness формата : Big
    Идентификатор кодека : A_AC3
    Продолжительность : 1 ч. 48 м.
    Вид битрейта : Постоянный
    Битрейт : 448 Кбит/сек
    Каналы : 6 каналов
    Расположение каналов : Front: L C R, Side: L R, LFE
    Частота : 48,0 КГц
    Битовая глубина : 16 бит
    Метод сжатия : С потерями
    Размер потока : 349 Мбайт (1%)
    Язык : Russian
    Default : Да
    Forced : Нет

    Аудио #2
    Идентификатор : 3
    Формат : DTS
    Формат/Информация : Digital Theater Systems
    Идентификатор кодека : A_DTS
    Продолжительность : 1 ч. 48 м.
    Вид битрейта : Постоянный
    Битрейт : 1510 Кбит/сек
    Каналы : 6 каналов
    Расположение каналов : Front: L C R, Side: L R, LFE
    Частота : 48,0 КГц
    Битовая глубина : 24 бит
    Метод сжатия : С потерями
    Размер потока : 1,15 Гбайт (5%)
    Язык : Russian
    Default : Нет
    Forced : Нет

    Аудио #3
    Идентификатор : 4
    Формат : DTS
    Формат/Информация : Digital Theater Systems
    Профиль формата : MA / Core
    Идентификатор кодека : A_DTS
    Продолжительность : 1 ч. 48 м.
    Вид битрейта : Переменный
    Битрейт : 1561 Кбит/сек / 1510 Кбит/сек
    Каналы : 6 каналов
    Расположение каналов : Front: L C R, Side: L R, LFE
    Частота : 48,0 КГц
    Битовая глубина : 24 бит
    Метод сжатия : Без потерь / Lossy
    Язык : English
    Default : Нет
    Forced : Нет

    Аудио #4
    Идентификатор : 5
    Формат : AC-3
    Формат/Информация : Audio Coding 3
    Профиль формата : Dolby Digital
    Расширение режима : CM (complete main)
    Параметр Endianness формата : Big
    Идентификатор кодека : A_AC3
    Продолжительность : 1 ч. 48 м.
    Вид битрейта : Постоянный
    Битрейт : 192 Кбит/сек
    Каналы : 2 канала
    Расположение каналов : Front: L R
    Частота : 48,0 КГц
    Битовая глубина : 16 бит
    Метод сжатия : С потерями
    Размер потока : 150 Мбайт (1%)
    Язык : English
    Default : Нет
    Forced : Нет

    Текст #1
    Идентификатор : 6
    Формат : PGS
    Режим смешивания : zlib
    Идентификатор кодека : S_HDMV/PGS
    Идентификатор кодека/Информация : The same subtitle format used on BDs/HD-DVDs
    Язык : Russian
    Default : Да
    Forced : Нет

    Текст #2
    Идентификатор : 7
    Формат : PGS
    Режим смешивания : zlib
    Идентификатор кодека : S_HDMV/PGS
    Идентификатор кодека/Информация : The same subtitle format used on BDs/HD-DVDs
    Язык : Russian
    Default : Нет
    Forced : Нет

    Текст #3
    Идентификатор : 8
    Формат : PGS
    Режим смешивания : zlib
    Идентификатор кодека : S_HDMV/PGS
    Идентификатор кодека/Информация : The same subtitle format used on BDs/HD-DVDs
    Язык : English
    Default : Нет
    Forced : Нет

    Текст #4
    Идентификатор : 9
    Формат : PGS
    Режим смешивания : zlib
    Идентификатор кодека : S_HDMV/PGS
    Идентификатор кодека/Информация : The same subtitle format used on BDs/HD-DVDs
    Язык : English
    Default : Нет
    Forced : Нет

    Текст #5
    Идентификатор : 10
    Формат : PGS
    Режим смешивания : zlib
    Идентификатор кодека : S_HDMV/PGS
    Идентификатор кодека/Информация : The same subtitle format used on BDs/HD-DVDs
    Язык : French
    Default : Нет
    Forced : Нет

    Текст #6
    Идентификатор : 11
    Формат : PGS
    Режим смешивания : zlib
    Идентификатор кодека : S_HDMV/PGS
    Идентификатор кодека/Информация : The same subtitle format used on BDs/HD-DVDs
    Язык : English
    Default : Нет
    Forced : Нет

    Меню
    00:00:00.000 : en:Chapter 1
    00:06:20.046 : en:Chapter 2
    00:19:32.588 : en:Chapter 3
    00:21:44.344 : en:Chapter 4
    00:27:28.813 : en:Chapter 5
    00:29:36.691 : en:Chapter 6
    00:37:08.643 : en:Chapter 7
    00:46:51.141 : en:Chapter 8
    00:59:11.589 : en:Chapter 9
    01:01:09.707 : en:Chapter 10
    01:04:42.795 : en:Chapter 11
    01:06:13.219 : en:Chapter 12
    01:09:44.930 : en:Chapter 13
    01:19:05.532 : en:Chapter 14
    01:26:59.546 : en:Chapter 15
    01:35:58.127 : en:Chapter 16

    Релиз группа NovaLan
    Автор сборки Sergei7721






    Релиз подготовил:


    Залил: Sergei7721
    Размер скачиваемого торрента: 25.47 GB (27348837093 Bytes)

    Перед полуночью / Before Midnight (2013) Blu-Ray Remux 1080p от NovaLan скачать через торрент бесплатно
    загрузка...
    Рейтинг →
     (голосов: 1, оценка 3/5, голосовать можно 1 раз )

    Другие торренты по теме:

  • Перед полуночью / Before Midnight (2013) HDRip | L1
  • Перед полуночью / Before Midnight (2013) BDRip 720p от CINEMANIA | A скачать через торрент бесплатно
  • Перед полуночью / Before Midnight (2013) BDRip 1080p от CINEMANIA | A скачать через торрент бесплатно
  • Перед полуночью / Before Midnight (2013) BDRip 1080p от CINEMANIA | L2, A
  • Перед полуночью / Before Midnight (2013) BDRip 720p от CINEMANIA | L2, A
  • Перед полуночью / Before Midnight (2013) HDRip от Scarabey | А
  • Перед полуночью / Before Midnight (2013) BDRip-AVC от HELLYWOOD | A
  • Перед полуночью / Before Midnight (2013) HDRip от Scarabey скачать через торрент бесплатно


    • Комментарии (0):

      Информация

      Информация

        Посетители, находящиеся в группе Гости, не могут оставлять комментарии в данной новости.

        ↓ Меню



        ↓ Опрос

        А Вы добавили сайт в закладки?
        Да
        Не


        Top 10 за месяц (Фильмы)