.
Авторизация | Регистрация
» » Крриш 3 / Krrish 3 (2013) BDRip 1080p скачать через торрент бесплатно




    Крриш 3 / Krrish 3 (2013) BDRip 1080p скачать через торрент бесплатно

    Опубликовал: Админ | Дата: 27-02-2015, 11:10 | Просмотров: 416



    Детально о кино

    Русское название: Крриш 3
    Русское название в мировом прокате: Krrish 3
    Создали в: 2013
    Снималось в: Индия
    Категория жанра: фантастика, боевик
    Время просмотра: 02:33:14
    Перевод текста: Любительский (многоголосый закадровый) ICG
    Оригинальная аудиодорожка: Хинди
    Субтитры: Русские (Songs, Full by ICG/tonyvika), английские (Full)
    Киностудия: Film Kraft

    Главный режиссер: Ракеш Рошан / Rakesh Roshan

    Актеры: Ритик Рошан, Приянка Чопра, Амитабх Баччан, Насируддин Шах, Кангана Ранаут, Раджпал Ядав, Вивек Оберой, Мохниш Бехл, Раджу Кхер, Сачин Кхедекар и др.

    Сюжет: После победы над злодеем Доктором Сидхартом Арья, и возвращения его отца Рохита, воскресшего из мертвых, Крриш продолжает бороться против зла и спасать невинные жизни.

    Теперь Кришна живёт жизнью в счастливом браке с Прией, в то время как Рохит использует свои научные данные на благо общества. И Крриш - любимый супергерой каждого спасённого.

    Им неизвестно, что тёмная сила растет в другой части мира. Каал, злобный гений, эгоистично злоупотребляющий свои силы, чтобы посеять страх, смерть и разрушение. И он пользуется поддержкой армии очень опасных существ, которых он создал сам.

    Вскоре планы Каала приведены в действие, Рохит и Крриш оказываются перед лицом кризиса эпических масштабов, которые только они могут решить вместе. Когда же наконец их пути пересеклись с Каалом и его армией, ни один из них не был готов к тому, что ждёт их впереди. Каал, не только приводит мир на грань катастрофы, он также ставит на прочность силу и любовь к Кришне и его семьи. И Крриш должен каким-то образом найти силу внутри к лицу непобедимого врага. Величайшая битва между добром и злом.

    Официальный сайт

    Качество фильма: BDRip 1080p (HDWinG)
    Контейнер: MKV
    Информация о видео кодек: MPEG-4 AVC Video
    Информация о звуке кодек: DTS Audio / Dolby Digital Audio
    Информация о видео: MPEG-4 AVC Video / 12300 kbps / 1920x818p / 24 fps / 2.35:1 / High Profile 4.1
    Информация о звуке 1: Русский / Dolby Digital Audio / 5.1 / 48 kHz / 448 kbps / 16-bit / Любительский (многоголосый закадровый) ICG
    Информация о звуке 2: Hindi / DTS Audio / 5.1 / 48 kHz / 1536 kbps / 24-bit / Original
    Навигация по главам: да





    Скриншот с названием фильма

    Скриншоты для ознакомления

    Полноразмерный постер

    MediaInfo
    C:/GORESEWAGE/Krrish 3 2013 BDRip 1080p GORESEWAGE.mkv
    General
    Unique ID : 221613219282845273286089918109141326864 (0xA6B9274C5BC865CBA8F4675D61965C10)
    Complete name : C:/GORESEWAGE/Krrish 3 2013 BDRip 1080p GORESEWAGE.mkv
    Format : Matroska
    Format version : Version 4 / Version 2
    File size : 15.2 GiB
    Duration : 2h 33mn
    Overall bit rate : 14.2 Mbps
    Movie name : Krrish 3 2013 BDRip 1080p GORESEWAGE
    Encoded date : UTC 2014-01-29 19:25:34
    Writing application : mkvmerge v6.7.0 (;Back to the Ground;) 64bit built on Jan 8 2014 15:10:52
    Writing library : libebml v1.3.0 libmatroska v1.4.1
    Attachment : Yes
    Video #1
    ID : 1
    Format : AVC
    Format/Info : Advanced Video Codec
    Format profile : High@L4.1
    Format settings, CABAC : Yes
    Format settings, ReFrames : 4 frames
    Codec ID : V_MPEG4/ISO/AVC
    Duration : 2h 33mn
    Bit rate : 12.3 Mbps
    Width : 1 920 pixels
    Height : 818 pixels
    Display aspect ratio : 2.35:1
    Frame rate mode : Constant
    Frame rate : 24.000 fps
    Color space : YUV
    Chroma subsampling : 4:2:0
    Bit depth : 8 bits
    Scan type : Progressive
    Bits/(Pixel*Frame) : 0.326
    Stream size : 12.9 GiB (84%)
    Title : Krrish 3 2013 BDRip 1080p GORESEWAGE
    Writing library : x264 core 135 r2345 f0c1c53
    Encoding settings : cabac=1 / ref=4 / deblock=1:-3:-3 / analyse=0x3:0x133 / me=umh / subme=11 / psy=1 / psy_rd=1.15:0.10 / mixed_ref=1 / me_range=24 / chroma_me=1 / trellis=2 / 8x8dct=1 / cqm=0 / deadzone=21,11 / fast_pskip=0 / chroma_qp_offset=-3 / threads=12 / lookahead_threads=2 / sliced_threads=0 / nr=0 / decimate=0 / interlaced=0 / bluray_compat=0 / constrained_intra=0 / bframes=8 / b_pyramid=2 / b_adapt=2 / b_bias=0 / direct=3 / weightb=1 / open_gop=0 / weightp=2 / keyint=360 / keyint_min=2 / scenecut=40 / intra_refresh=0 / rc=2pass / mbtree=0 / bitrate=12300 / ratetol=1.0 / qcomp=0.70 / qpmin=0 / qpmax=69 / qpstep=4 / cplxblur=20.0 / qblur=0.5 / ip_ratio=1.20 / pb_ratio=1.20 / aq=1:1.00
    Language : Hindi
    Default : Yes
    Forced : No
    Audio #2
    ID : 2
    Format : AC-3
    Format/Info : Audio Coding 3
    Mode extension : CM (complete main)
    Format settings, Endianness : Big
    Codec ID : A_AC3
    Duration : 2h 33mn
    Bit rate mode : Constant
    Bit rate : 448 Kbps
    Channel count : 6 channels
    Channel positions : Front: L C R, Side: L R, LFE
    Sampling rate : 48.0 KHz
    Bit depth : 16 bits
    Compression mode : Lossy
    Stream size : 491 MiB (3%)
    Title : MVO ICG
    Language : Russian
    Default : Yes
    Forced : No
    Audio #3
    ID : 3
    Format : DTS
    Format/Info : Digital Theater Systems
    Mode : 16
    Format settings, Endianness : Big
    Codec ID : A_DTS
    Duration : 2h 33mn
    Bit rate mode : Constant
    Bit rate : 1 509 Kbps
    Channel count : 6 channels
    Channel positions : Front: L C R, Side: L R, LFE
    Sampling rate : 48.0 KHz
    Bit depth : 24 bits
    Compression mode : Lossy
    Stream size : 1.62 GiB (11%)
    Title : Original
    Language : Hindi
    Default : No
    Forced : No
    Text #4
    ID : 4
    Format : UTF-8
    Codec ID : S_TEXT/UTF8
    Codec ID/Info : UTF-8 Plain Text
    Title : Songs (ICG/tonyvika)
    Language : Russian
    Default : Yes
    Forced : No
    Text #5
    ID : 5
    Format : UTF-8
    Codec ID : S_TEXT/UTF8
    Codec ID/Info : UTF-8 Plain Text
    Title : Full (ICG/tonyvika)
    Language : Russian
    Default : No
    Forced : No
    Text #6
    ID : 6
    Format : UTF-8
    Codec ID : S_TEXT/UTF8
    Codec ID/Info : UTF-8 Plain Text
    Title : Full
    Language : English
    Default : No
    Forced : No
    Menu
    00:00:00.000 : hi:00:00:00.000
    00:07:44.958 : hi:00:07:44.958
    00:11:50.167 : hi:00:11:50.167
    00:17:15.125 : hi:00:17:15.125
    00:24:28.875 : hi:00:24:28.875
    00:28:16.500 : hi:00:28:16.500
    00:40:24.500 : hi:00:40:24.500
    00:51:45.083 : hi:00:51:45.083
    01:01:22.333 : hi:01:01:22.333
    01:04:39.417 : hi:01:04:39.417
    01:10:25.375 : hi:01:10:25.375
    01:21:16.542 : hi:01:21:16.542
    01:34:05.458 : hi:01:34:05.458
    01:48:36.958 : hi:01:48:36.958
    01:54:43.708 : hi:01:54:43.708
    02:08:43.667 : hi:02:08:43.667
    02:12:24.792 : hi:02:12:24.792
    02:28:17.750 : hi:02:28:17.750

    Размер скачиваемого торрента: 15.25 GB (16373476237 Bytes)

    Крриш 3 / Krrish 3 (2013) BDRip 1080p скачать через торрент бесплатно
    загрузка...
    Рейтинг →
     (голосов: 1, оценка 3/5, голосовать можно 1 раз )

    Другие торренты по теме:



      Комментарии (0):

      Информация

      Информация

        Посетители, находящиеся в группе Гости, не могут оставлять комментарии в данной новости.

        ↓ Меню



        ↓ Опрос

        А Вы добавили сайт в закладки?
        Да
        Не


        Top 10 за неделю (Фильмы)