.
Авторизация | Регистрация
Хочешь лучшие торренты? Добавь свой email!
Добавить
» » Разумное сомнение / Reasonable Doubt (2014) WEB-DLRip-AVC | L1 скачать через торрент бесплатно




    Разумное сомнение / Reasonable Doubt (2014) WEB-DLRip-AVC | L1 скачать через торрент бесплатно

    Опубликовал: Админ | Дата: 27-02-2015, 11:10 | Просмотров: 418



    Наименование: Разумное сомнение
    Оригинальное наименование: Reasonable Doubt
    Создали в: 2014
    Произведено: Германия, Канада
    Категория жанра: триллер, криминал
    Время просмотра: 01:31:16
    Тип перевода: Любительское (одноголосое)

    Главный режиссер: Питер Хауит

    В главных ролях: Доминик Купер, Сэмюэл Л. Джексон, Эрин Карплак, Глория Рубен, Райан Роббинс, Дилан Тейлор, Филипп Бреннинкмейер, Лэйн Стайлз, Джон Б. Лоу, Джессика Бёрлсон

    Краткое описание:
    Помощник окружного прокурора, находясь немного пьяным за рулем, случайно сбивает выбежавшего на дорогу человека. Вызывает ему скорую, но уезжает с места ДТП, надеясь, что все кончится хорошо, не желая объясняться с полицией по поводу своего нетрезвого состояния. Он не догадывается, что на месте ДТП его кое-кто видел...



    Качество фильма: WEB-DLRip-AVC
    Информация о видео: MPEG-4 AVC/H.264, 1024x416, ~2 094 kbps avg, 23.976 fps, 0.205 bit/pixel
    Информация о звуке: AC3 2.0, 192 kbps - Русский
    Семпл

    MediaInfo
    Формат : Matroska
    Версия формата : Version 2
    Размер файла : 1,46 Гбайт
    Продолжительность : 1 ч. 31 м.
    Общий поток : 2287 Кбит/сек
    Дата кодирования : UTC 2014-01-31 04:12:13
    Программа кодирования : mkvmerge v5.8.0 (;No Sleep / Pillow;) built on Sep 2 2012 15:37:04
    Библиотека кодирования : libebml v1.2.3 libmatroska v1.3.0

    Видео
    Идентификатор : 1
    Формат : AVC
    Формат/Информация : Advanced Video Codec
    Профиль формата : High@L4.1
    Параметр CABAC формата : Да
    Параметр ReFrames формата : 3 кадра
    Идентификатор кодека : V_MPEG4/ISO/AVC
    Продолжительность : 1 ч. 31 м.
    Битрейт : 2094 Кбит/сек
    Ширина : 1024 пикселя
    Высота : 416 пикселей
    Соотношение сторон : 2,462
    Режим частоты кадров : Постоянный
    Частота кадров : 23,976 кадра/сек
    Цветовое пространство : YUV
    Субдискретизация насыщенности : 4:2:0
    Битовая глубина : 8 бит
    Тип развёртки : Прогрессивная
    Бит/(Пиксели*Кадры) : 0.205
    Размер потока : 1,31 Гбайт (90%)
    Библиотека кодирования : x264 core 129 r2230 1cffe9f
    Настройки программы : cabac=1 / ref=4 / deblock=1:-1:-1 / analyse=0x3:0x113 / me=umh / subme=8 / psy=1 / psy_rd=1.00:0.00 / mixed_ref=1 / me_range=16 / chroma_me=1 / trellis=2 / 8x8dct=1 / cqm=0 / deadzone=21,11 / fast_pskip=1 / chroma_qp_offset=-2 / threads=3 / lookahead_threads=1 / sliced_threads=0 / nr=0 / decimate=1 / interlaced=0 / bluray_compat=0 / constrained_intra=0 / bframes=4 / b_pyramid=1 / b_adapt=2 / b_bias=0 / direct=3 / weightb=1 / open_gop=0 / weightp=2 / keyint=240 / keyint_min=23 / scenecut=40 / intra_refresh=0 / rc=2pass / mbtree=0 / bitrate=2094 / ratetol=1.0 / qcomp=0.60 / qpmin=0 / qpmax=69 / qpstep=4 / cplxblur=20.0 / qblur=0.5 / ip_ratio=1.40 / pb_ratio=1.30 / aq=1:1.00
    Язык : English
    Default : Да
    Forced : Нет

    Аудио
    Идентификатор : 2
    Формат : AC-3
    Формат/Информация : Audio Coding 3
    Расширение режима : CM (complete main)
    Параметр Endianness формата : Big
    Идентификатор кодека : A_AC3
    Продолжительность : 1 ч. 31 м.
    Вид битрейта : Постоянный
    Битрейт : 192 Кбит/сек
    Каналы : 2 канала
    Расположение каналов : Front: L R
    Частота : 48,0 КГц
    Битовая глубина : 16 бит
    Метод сжатия : С потерями
    Размер потока : 125 Мбайт (8%)
    Язык : Russian
    Default : Да
    Forced : Нет
    Скриншоты для ознакомления

    Размер скачиваемого торрента: 1.46 GB (1565876910 Bytes)

    Разумное сомнение / Reasonable Doubt (2014) WEB-DLRip-AVC | L1 скачать через торрент бесплатно
    загрузка...
    Рейтинг →
     (голосов: 1, оценка 5/5, голосовать можно 1 раз )

    Другие торренты по теме:

  • Разумное сомнение / Beyond a Reasonable Doubt (2009) BDRip 1080р | D
  • Разумное сомнение / По ту сторону разумного сомнения / Beyond a Reasonable Doubt (2009) НDRip от Scarabey
  • Разумное сомнение / Reasonable Doubt (2014) WEB-DLRip | L1 скачать через торрент бесплатно
  • Разумное сомнение / Reasonable Doubt (2014) WEB-DLRip от New-Team скачать через торрент бесплатно
  • Разумное сомнение / Reasonable Doubt (2014) WEB-DLRip от Scarabey
  • Разумное сомнение / Reasonable Doubt (2014) WEB-DL 1080p от CINEMANIA | A, 3xL1 скачать через торрент бесплатно
  • Разумное сомнение / Reasonable Doubt (2014) BDRip 1080p от CINEMANIA | A, 3xL1
  • Разумное сомнение / Reasonable Doubt (2014) BDRip 720p от CINEMANIA | A, 3xL1


    • Комментарии (0):

      Информация

      Информация

        Посетители, находящиеся в группе Гости, не могут оставлять комментарии в данной новости.

        ↓ Меню



        ↓ Опрос

        А Вы добавили сайт в закладки?
        Да
        Не


        Top 10 за месяц (Фильмы)