.
Авторизация | Регистрация
Хочешь лучшие торренты? Добавь свой email!
Добавить
» » Прометей / Prometheus (2012) BDRip 1080p | FAN Cut скачать через торрент бесплатно




    Прометей / Prometheus (2012) BDRip 1080p | FAN Cut скачать через торрент бесплатно

    Опубликовал: Админ | Дата: 27-02-2015, 11:10 | Просмотров: 381



    Прометей / Prometheus (2012)

    Русское название: Прометей
    Русское название в мировом прокате: Prometheus
    Создали в: 2012
    Создали в: США, Великобритания
    Категория жанра: Фантастика, триллер, приключения
    Перевод текста: Профессиональный (полное дублирование) Любительский (одноголосый) KEWЕ на добавленные сцены
    Субтитры: отсутствуют
    Время просмотра: 02:16:47

    Главный режиссер: Ридли Скотт

    Актеры: Нуми Рапас, Майкл Фассбендер, Шарлиз Терон, Идрис Эльба, Гай Пирс, Логан Маршалл-Грин, Шон Харрис, Рейф Сполл, Иман Эллиотт, Бенедикт Вонг


    В конце 21 века корпорация Уэйланд посылает к далёкой планете космической корабль Прометей с научным экипажем на борту. Учёные Элизабет Шоу и Чарли Холоуэй обнаружили интересную закономерность в наскальных рисунках разных эпох. Их объединяет набор идентичных символов, позволяющих предположить, что они являются посланием от инопланетных создателей человечества.




    Качество фильма: BDRip 1080p
    Тип видео: MKV
    Информация о видео: 1920x800 (2.40:1), 23.976 fps, AVC (x264) High@L4.1, 10.3 Mbps, 0.280 bit/pixel
    Информация о звуке: 48 kHz, AC3 Dolby Digital, 2/0 (L,R) ch, 384 kbps

    Доп.инфа
    Эта версия фильма является фанатской, были добавлены и заменены некоторые сцены...
    Добавленны сцены:
    Прибытие Инженеров, Конференция TED, 2023, Кожа, Мы больше не Одни,Странные Компаньоны, Задача Дэвида, Дженек Информирует Викерс, Файлфилд Атакует, Инженер Говорит, Финальная Битва
    В фильм не вошли Сезон Настал, Наш Первый Инопланетянин, Похмелье Холлоуэя, Король Царит, Рай
    А так же удалены заставки кинокомпаний кроме 20-ый век фокс, она и заключительные титры ускорены
    Меню: Главы переписаны под оригинал добавлены Всего 44 главы.
    MediaInfo
    Format : Matroska
    Format version : Version 2
    File size : 10.2 GiB
    Duration : 2h 16mn
    Overall bit rate : 10.7 Mbps
    Movie name : FUN cut
    Encoded date : UTC 2012-10-15 18:09:50
    Writing application : mkvmerge v5.0.1 (;Es ist Sommer;) built on Oct 9 2011 11:55:43
    Writing library : libebml v1.2.2 libmatroska v1.3.0

    Video
    ID : 1
    Format : AVC
    Format/Info : Advanced Video Codec
    Format profile : High@L4.1
    Format settings, CABAC : Yes
    Format settings, ReFrames : 5 frames
    Codec ID : V_MPEG4/ISO/AVC
    Duration : 2h 16mn
    Bit rate : 10.3 Mbps
    Width : 1 920 pixels
    Height : 800 pixels
    Display aspect ratio : 2.40:1
    Frame rate mode : Constant
    Frame rate : 23.976 fps
    Color space : YUV
    Chroma subsampling : 4:2:0
    Bit depth : 8 bits
    Scan type : Progressive
    Bits/(Pixel*Frame) : 0.280
    Stream size : 9.64 GiB (94%)
    Title : FUN cat
    Writing library : x264 core 124 r2197 69a0443
    Encoding settings : cabac=1 / ref=5 / deblock=1:-3:-3 / analyse=0x3:0x113 / me=umh / subme=11 / psy=1 / psy_rd=1.15:0.00 / mixed_ref=1 / me_range=48 / chroma_me=1 / trellis=2 / 8x8dct=1 / cqm=0 / deadzone=21,11 / fast_pskip=0 / chroma_qp_offset=-2 / threads=10 / sliced_threads=0 / nr=0 / decimate=1 / interlaced=0 / bluray_compat=0 / constrained_intra=0 / bframes=8 / b_pyramid=2 / b_adapt=2 / b_bias=0 / direct=3 / weightb=0 / open_gop=0 / weightp=2 / keyint=250 / keyint_min=23 / scenecut=40 / intra_refresh=0 / rc_lookahead=150 / rc=2pass / mbtree=1 / bitrate=10301 / ratetol=1.0 / qcomp=0.70 / qpmin=0 / qpmax=69 / qpstep=4 / cplxblur=20.0 / qblur=0.5 / ip_ratio=1.40 / aq=1:0.60
    Language : English
    Default : Yes
    Forced : No

    Audio
    ID : 2
    Format : AC-3
    Format/Info : Audio Coding 3
    Mode extension : CM (complete main)
    Format settings, Endianness : Big
    Codec ID : A_AC3
    Duration : 2h 16mn
    Bit rate mode : Constant
    Bit rate : 384 Kbps
    Channel(s) : 2 channels
    Channel positions : Front: L R
    Sampling rate : 48.0 KHz
    Bit depth : 16 bits
    Compression mode : Lossy
    Stream size : 376 MiB (4%)
    Title : DUB VO - KEWE
    Language : Russian
    Default : Yes
    Forced : No

    Menu
    00:00:00.000 : en:Chapter 01
    00:00:17.767 : en:Chapter 02
    00:04:49.539 : en:Chapter 03
    00:11:41.535 : en:Chapter 04
    00:14:06.263 : en:Chapter 05
    00:18:01.165 : en:Chapter 06
    00:21:39.383 : en:Chapter 07
    00:26:34.512 : en:Chapter 08
    00:29:02.451 : en:Chapter 09
    00:34:12.720 : en:Chapter 10
    00:38:27.433 : en:Chapter 11
    00:40:40.441 : en:Chapter 12
    00:44:22.831 : en:Chapter 13
    00:47:14.961 : en:Chapter 14
    00:51:16.745 : en:Chapter 15
    00:53:03.059 : en:Chapter 16
    00:54:28.562 : en:Chapter 17
    00:57:26.949 : en:Chapter 18
    00:59:02.044 : en:Chapter 19
    01:02:35.455 : en:Chapter 20
    01:08:07.923 : en:Chapter 21
    01:10:05.207 : en:Chapter 22
    01:12:53.542 : en:Chapter 23
    01:14:37.355 : en:Chapter 24
    01:17:33.906 : en:Chapter 25
    01:19:49.542 : en:Chapter 26
    01:23:46.654 : en:Chapter 27
    01:24:08.926 : en:Chapter 28
    01:24:33.368 : en:Chapter 29
    01:26:05.793 : en:Chapter 30
    01:29:39.340 : en:Chapter 31
    01:33:15.348 : en:Chapter 32
    01:37:37.903 : en:Chapter 33
    01:39:45.238 : en:Chapter 34
    01:42:46.712 : en:Chapter 35
    01:45:20.741 : en:Chapter 36
    01:48:00.734 : en:Chapter 37
    01:50:11.824 : en:Chapter 38
    01:57:37.051 : en:Chapter 39
    02:02:19.719 : en:Chapter 40
    02:05:50.054 : en:Chapter 41
    02:06:53.326 : en:Chapter 42
    02:09:13.674 : en:Chapter 43
    02:14:06.801 : en:Chapter 44
    Скриншоты для ознакомления

    Размер скачиваемого торрента: 10.21 GB (10961899734 Bytes)

    Прометей / Prometheus (2012) BDRip 1080p | FAN Cut скачать через торрент бесплатно
    загрузка...
    Рейтинг →
     (голосов: 1, оценка 3/5, голосовать можно 1 раз )

    Другие торренты по теме:

  • Прометей / Prometheus (2012) BDRip 1080p | 60 fps
  • Мэри Шелли - Франкенштейн, или Современный Прометей (2010) MP3
  • Прометей / Prometheus (2012) BDRip 720p | 60 fps | D, A скачать через торрент бесплатно
  • OST - Прометей / Prometheus (Expanded) (2012) MP3 скачать через торрент бесплатно
  • Прометей / Prometheus (2012) BDRip 1080p от GORESEWAGE | 3D-Video
  • Прометей / Prometheus (2012) BDRemux 1080p от GORESEWAGE
  • Прометей / Prometheus (2012) BDRip 1080p от GORESEWAGE
  • Прометей / Prometheus (2012) BDRip 720p от GORESEWAGE


    • Комментарии (0):

      Информация

      Информация

        Посетители, находящиеся в группе Гости, не могут оставлять комментарии в данной новости.

        ↓ Меню



        ↓ Опрос

        А Вы добавили сайт в закладки?
        Да
        Не


        Top 10 за месяц (Фильмы)