.
Авторизация | Регистрация
Хочешь лучшие торренты? Добавь свой email!
Добавить
» » Нюхач (2013) DVDRip от New-Team | лицензия скачать через торрент бесплатно




    Нюхач (2013) DVDRip от New-Team | лицензия скачать через торрент бесплатно

    Опубликовал: Админ | Дата: 27-02-2015, 11:10 | Просмотров: 289

    Каждое преступление имеет свой запах…



    Снималось в: Украина / Film.UA
    Категория жанра: детектив, драма, криминал
    Создали в: 2013
    Время просмотра: 8 x ~00:50:00

    Перевод текста: не требуется
    Субтитры подготовлены: нет
    Оригинальная аудиодорожка: русский

    Главный режиссер: Артем Литвиненко

    Актеры: Кирилл Кяро, Оксана Коляденко, Петр Крылов, Андрей Дебрин, Иван Оганесян, Мария Аниканова, Александр Тютин, Борис Каморзин, Николай Чиндяйкин, Нина Гогаева...

    Сюжет: Его зовут Нюхач. Он обладает сверхчувствительным обонянием, для него не существует тайн и нераскрываемых преступлений. По запаху Нюхач может рассказать все и даже больше о любом человеке: что он ел, с кем он спал, есть ли у него алиби. Уникальная способность Нюхача — его дар и проклятие одновременно.
    С одной стороны, он раскрывает самые изощренные и запутанные преступления, знает все сокровенные тайны политиков, бизнесменов и криминальных авторитетов. С другой — Нюхач абсолютно беззащитен перед окружающим миром, переполненным всевозможными запахами. Он не умеет строить отношения ни с женщинами, ни с близкими людьми, потому что знает о них всё: ему невозможно сделать сюрприз, его нельзя обмануть, любой посторонний запах оттолкнет его от самого романтического свидания. У него сложная, но интересная жизнь…



    Качество фильма: DVDRip (DVD9 R5)
    Тип видео: AVI

    Информация о видео: 720x400 (16:9), 25.000 fps, XViD ~ 2000 kbps avg, 0.278 bit/pixel
    Информация о звуке: 48 kHz, АС3 2 ch, 128 kbps, русский

    Раздача от:
    MediaInfo

    Общее
    Полное имя : Nyuhach.2013.O.DVDRip1.avi
    Формат : AVI
    Формат/Информация : Audio Video Interleave
    Размер файла : 759 Мбайт
    Продолжительность : 49 м.
    Общий поток : 2134 Кбит/сек
    Программа кодирования : VirtualDubMod 1.5.10.3 | www.virtualdub-fr.org || (build 2550/release)
    Библиотека кодирования : VirtualDubMod build 2550/release

    Видео
    Идентификатор : 0
    Формат : MPEG-4 Visual
    Профиль формата : Advanced Simple@L5
    Параметр BVOP формата : 1
    Параметр QPel формата : Нет
    Параметр GMC формата : Без точки перехода
    Параметр матрицы формата : Выборочная
    Идентификатор кодека : XVID
    Идентификатор кодека/Подсказка : XviD
    Продолжительность : 49 м.
    Битрейт : 1997 Кбит/сек
    Ширина : 720 пикселей
    Высота : 400 пикселей
    Соотношение сторон : 16:9
    Частота кадров : 25,000 кадров/сек
    Цветовое пространство : YUV
    Субдискретизация насыщенности : 4:2:0
    Битовая глубина : 8 бит
    Тип развёртки : Прогрессивная
    Метод сжатия : С потерями
    Бит/(Пиксели*Кадры) : 0.277
    Размер потока : 710 Мбайт (94%)
    Библиотека кодирования : XviD 73

    Аудио
    Идентификатор : 1
    Формат : AC-3
    Формат/Информация : Audio Coding 3
    Расширение режима : CM (complete main)
    Параметр Endianness формата : Big
    Идентификатор кодека : 2000
    Продолжительность : 49 м.
    Вид битрейта : Постоянный
    Битрейт : 128 Кбит/сек
    Каналы : 2 канала
    Расположение каналов : Front: L R
    Частота : 48,0 КГц
    Битовая глубина : 16 бит
    Метод сжатия : С потерями
    Размер потока : 45,5 Мбайт (6%)
    Выравнивание : Разделение по промежуткам
    Продолжительность промежутка : 40 мс. (1,00 видеокадр)
    Время предзагрузки промежутка : 500 мс.

    Скриншоты для ознакомления:



    Залил: avproh
    Размер скачиваемого торрента: 6.10 GB (6544484352 Bytes)

    Нюхач (2013) DVDRip от New-Team | лицензия скачать через торрент бесплатно
    загрузка...
    Рейтинг →
     (голосов: 1, оценка 4/5, голосовать можно 1 раз )

    Другие торренты по теме:

  • Нюхач (2013) SATRip от GeneralFilm
  • Нюхач (2013) SATRip от Simka BigFANGroup
  • Нюхач (2013) SATRip от Simka amp BigFANGroup
  • Нюхач (2013) SATRip | КПК от MediaClub скачать через торрент бесплатно
  • Нюхач (2013) HDTVRip | Nikolspup скачать через торрент бесплатно
  • Нюхач (2013) HDTVRip от MediaClub скачать через торрент бесплатно
  • Нюхач (2013) WEB-DLRip от Generalfilm
  • Нюхач (2013) WEB-DLRip от Generalfilm | КПК скачать через торрент бесплатно


    • Комментарии (0):

      Информация

      Информация

        Посетители, находящиеся в группе Гости, не могут оставлять комментарии в данной новости.

        ↓ Меню



        ↓ Опрос

        А Вы добавили сайт в закладки?
        Да
        Не


        Top 10 за месяц (Фильмы)