.
Авторизация | Регистрация
Хочешь лучшие торренты? Добавь свой email!
Добавить
» » Пятая власть / The Fifth Estate (2013) BDRip 720p от GORESEWAGE торрент скачать бесплатно




    Пятая власть / The Fifth Estate (2013) BDRip 720p от GORESEWAGE торрент скачать бесплатно

    Опубликовал: Админ | Дата: 27-02-2015, 11:10 | Просмотров: 490



    Русское название: Пятая власть
    Русское название в мировом прокате: The Fifth Estate
    Создали в: 2013
    Снималось в: Великобритания, Бельгия
    Категория жанра: триллер, драма, биография
    Время просмотра: 02:08:15.754
    Перевод текста 1: Профессиональный (многоголосый закадровый) СПД
    Перевод текста 2: Одноголосый закадровый Doctor_Joker (Алексей Матвеев)
    Перевод текста 3: Одноголосый закадровый Точка Zрения
    Оригинальная аудиодорожка: Английская
    Субтитры: Русские (Full), английские (Full, SDH), французские (Full), испанские (Full)
    Киностудия: DreamWorks SKG, Reliance Entertainment, Participant Media

    Главный режиссёр: Билл Кондон / Bill Condon

    Актеры: Бенедикт Камбербэтч, Даниэль Брюль, Энтони Маки, Дэвид Тьюлис, Алисия Викандер, Стэнли Туччи, Лора Линни, Питер Капальди, Анатоль Таубман, Александр Байер и др.

    Сюжет: В мире, где информация ценится превыше всего, а утечка сведений под грифом секретно может вызвать необратимые последствия, сайт WikiLeaks навсегда поменял правила игры. Фильм, основанный на реальных событиях, рассказывает о попытке разоблачить государственную коррупцию и ложь властей, которая превратила интернет-стартап в одну из самых известных и обсуждаемых организаций 21-го века. За первые годы существования WIKILEAKS обнародовал больше тайн, чем самые влиятельные в мире СМИ вместе взятые, раскрывая постыдные секреты государственных служб и финансовые преступления корпораций. Но когда основатели сайта получили доступ к крупнейшему засекреченному архиву США, им предстояло найти для себя ответ на один из важнейших вопросов современности: какова цена тайны в свободном обществе - и какова цена её разглашения?





    Качество фильма: BDRip 720p (TayTO)
    Контейнер: MKV
    Информация о видео кодек: MPEG-4 AVC Video
    Информация о звуке кодек: DTS Audio / Dolby Digital Audio
    Информация о видео: MPEG-4 AVC Video / 7579 kbps / 1280x534p / 23,976 fps / 2.40:1 / High Profile 4.1
    Информация о звуке 1: Russian / DTS Audio / 5.1 / 48 kHz / 1536 kbps / 24-bit / MVO СПД
    Информация о звуке 2: Russian / DTS Audio / 5.1 / 48 kHz / 1536 kbps / 24-bit / VO Doctor_Joker (Алексей Матвеев)
    Информация о звуке 3: Russian / Dolby Digital Audio / 2.0 / 48 kHz / 192 kbps / 16-bit / VO Точка Zрения
    Информация о звуке 4: English / DTS Audio / 5.1 / 48 kHz / 1536 kbps / 24-bit / Original
    Навигация по главам: да

    Дополнительная информация

    * За дорогу №1 thx batonchik BlueBird.
    * За дорогу №2 thx sashock86. Перевод на русский язык Li.Reverie, озвучка и редактура текста Doctor_Joker, заказчик будулайроманов.

    Скриншот с названием фильма

    Скриншоты для ознакомления

    Полноразмерные постеры

    MediaInfo
    C:/GORESEWAGE/The Fifth Estate 2013 BDRip 720p GORESEWAGE.mkv
    General
    Unique ID : 227688836510048361563635389771269274973 (0xAB4B465AD93BF9C8991AC1AEDAF7FD5D)
    Complete name : C:/GORESEWAGE/The Fifth Estate 2013 BDRip 720p GORESEWAGE.mkv
    Format : Matroska
    Format version : Version 4 / Version 2
    File size : 11.2 GiB
    Duration : 2h 8mn
    Overall bit rate : 12.5 Mbps
    Movie name : The Fifth Estate 2013 BDRip 720p GORESEWAGE
    Encoded date : UTC 2014-02-01 00:47:51
    Writing application : mkvmerge v6.7.0 (;Back to the Ground;) 64bit built on Jan 8 2014 15:10:52
    Writing library : libebml v1.3.0 libmatroska v1.4.1
    Attachment : Yes
    Video #1
    ID : 1
    Format : AVC
    Format/Info : Advanced Video Codec
    Format profile : High@L4.1
    Format settings, CABAC : Yes
    Format settings, ReFrames : 12 frames
    Codec ID : V_MPEG4/ISO/AVC
    Duration : 2h 8mn
    Bit rate : 7 579 Kbps
    Width : 1 280 pixels
    Height : 534 pixels
    Display aspect ratio : 2.40:1
    Frame rate mode : Constant
    Frame rate : 23.976 fps
    Color space : YUV
    Chroma subsampling : 4:2:0
    Bit depth : 8 bits
    Scan type : Progressive
    Bits/(Pixel*Frame) : 0.462
    Stream size : 6.79 GiB (60%)
    Title : The Fifth Estate 2013 BDRip 720p GORESEWAGE
    Writing library : x264 core 140 r2377 1ca7bb9
    Encoding settings : cabac=1 / ref=12 / deblock=1:-3:-3 / analyse=0x3:0x133 / me=tesa / subme=11 / psy=1 / psy_rd=1.05:0.00 / mixed_ref=1 / me_range=16 / chroma_me=1 / trellis=2 / 8x8dct=1 / cqm=0 / deadzone=21,11 / fast_pskip=0 / chroma_qp_offset=-2 / threads=12 / lookahead_threads=3 / sliced_threads=0 / nr=0 / decimate=1 / interlaced=0 / bluray_compat=0 / constrained_intra=0 / bframes=11 / b_pyramid=2 / b_adapt=2 / b_bias=0 / direct=3 / weightb=1 / open_gop=0 / weightp=2 / keyint=250 / keyint_min=23 / scenecut=40 / intra_refresh=0 / rc=crf / mbtree=0 / crf=15.8 / qcomp=0.70 / qpmin=0 / qpmax=69 / qpstep=4 / ip_ratio=1.40 / pb_ratio=1.30 / aq=1:0.90
    Language : English
    Default : Yes
    Forced : No
    Matrix coefficients : BT.709
    Audio #2
    ID : 2
    Format : DTS
    Format/Info : Digital Theater Systems
    Mode : 16
    Format settings, Endianness : Big
    Codec ID : A_DTS
    Duration : 2h 8mn
    Bit rate mode : Constant
    Bit rate : 1 509 Kbps
    Channel count : 6 channels
    Channel positions : Front: L C R, Side: L R, LFE
    Sampling rate : 48.0 KHz
    Bit depth : 24 bits
    Compression mode : Lossy
    Stream size : 1.35 GiB (12%)
    Title : MVO СПД
    Language : Russian
    Default : Yes
    Forced : No
    Audio #3
    ID : 3
    Format : DTS
    Format/Info : Digital Theater Systems
    Mode : 16
    Format settings, Endianness : Big
    Codec ID : A_DTS
    Duration : 2h 8mn
    Bit rate mode : Constant
    Bit rate : 1 510 Kbps
    Channel count : 6 channels
    Channel positions : Front: L C R, Side: L R, LFE
    Sampling rate : 48.0 KHz
    Bit depth : 24 bits
    Compression mode : Lossy
    Stream size : 1.35 GiB (12%)
    Title : VO Doctor_Joker (Алексей Матвеев)
    Language : Russian
    Default : No
    Forced : No
    Audio #4
    ID : 4
    Format : AC-3
    Format/Info : Audio Coding 3
    Mode extension : CM (complete main)
    Format settings, Endianness : Big
    Codec ID : A_AC3
    Duration : 2h 8mn
    Bit rate mode : Constant
    Bit rate : 192 Kbps
    Channel count : 2 channels
    Channel positions : Front: L R
    Sampling rate : 48.0 KHz
    Bit depth : 16 bits
    Compression mode : Lossy
    Stream size : 176 MiB (2%)
    Title : VO Точка Zрения
    Language : Russian
    Default : No
    Forced : No
    Audio #5
    ID : 5
    Format : DTS
    Format/Info : Digital Theater Systems
    Mode : 16
    Format settings, Endianness : Big
    Codec ID : A_DTS
    Duration : 2h 8mn
    Bit rate mode : Constant
    Bit rate : 1 509 Kbps
    Channel count : 6 channels
    Channel positions : Front: L C R, Side: L R, LFE
    Sampling rate : 48.0 KHz
    Bit depth : 24 bits
    Compression mode : Lossy
    Stream size : 1.35 GiB (12%)
    Title : Original
    Language : English
    Default : No
    Forced : No
    Text #6
    ID : 6
    Format : UTF-8
    Codec ID : S_TEXT/UTF8
    Codec ID/Info : UTF-8 Plain Text
    Title : Full
    Language : Russian
    Default : No
    Forced : No
    Text #7
    ID : 7
    Format : UTF-8
    Codec ID : S_TEXT/UTF8
    Codec ID/Info : UTF-8 Plain Text
    Title : Full
    Language : English
    Default : No
    Forced : No
    Text #8
    ID : 8
    Format : UTF-8
    Codec ID : S_TEXT/UTF8
    Codec ID/Info : UTF-8 Plain Text
    Title : SDH
    Language : English
    Default : No
    Forced : No
    Text #9
    ID : 9
    Format : UTF-8
    Codec ID : S_TEXT/UTF8
    Codec ID/Info : UTF-8 Plain Text
    Title : Full
    Language : French
    Default : No
    Forced : No
    Text #10
    ID : 10
    Format : UTF-8
    Codec ID : S_TEXT/UTF8
    Codec ID/Info : UTF-8 Plain Text
    Title : Full
    Language : Spanish
    Default : No
    Forced : No
    Menu
    00:00:00.000 : en:00:00:00.000
    00:05:53.144 : en:00:05:53.144
    00:12:18.446 : en:00:12:18.446
    00:19:35.007 : en:00:19:35.007
    00:26:17.993 : en:00:26:17.993
    00:34:17.472 : en:00:34:17.472
    00:40:31.721 : en:00:40:31.721
    00:46:53.853 : en:00:46:53.853
    00:54:58.337 : en:00:54:58.337
    01:01:29.853 : en:01:01:29.853
    01:06:38.119 : en:01:06:38.119
    01:14:39.266 : en:01:14:39.266
    01:20:30.951 : en:01:20:30.951
    01:32:05.979 : en:01:32:05.979
    01:39:26.085 : en:01:39:26.085
    01:47:48.671 : en:01:47:48.671
    01:56:02.622 : en:01:56:02.622
    02:02:54.909 : en:02:02:54.909

    Размер скачиваемого торрента: 11.24 GB (12071074352 Bytes)

    Пятая власть / The Fifth Estate (2013) BDRip 720p от GORESEWAGE торрент скачать бесплатно
    загрузка...
    Рейтинг →
     (голосов: 1, оценка 3/5, голосовать можно 1 раз )

    Другие торренты по теме:

  • Пятая власть (2013)
  • OST - Пятая Власть / The Fifth Estate (2013) MP3 скачать через торрент бесплатно
  • Пятая власть / The Fifth Estate (2013) HDRip | Sub скачать через торрент бесплатно
  • Пятая власть / The Fifth Estate (2013) BDRip 720p | Sub скачать через торрент бесплатно
  • Пятая власть / The Fifth Estate (2013) HDRip от Scarabey
  • Пятая власть / The Fifth Estate (2013) HDRip | L1 | Точка Zрения скачать через торрент бесплатно
  • Пятая власть / The Fifth Estate (2013) BDRip 720p | Точка Zрения
  • Пятая власть / The Fifth Estate (2013) BDRip 720p | L1 скачать через торрент бесплатно


    • Комментарии (0):

      Информация

      Информация

        Посетители, находящиеся в группе Гости, не могут оставлять комментарии в данной новости.

        ↓ Меню



        ↓ Опрос

        А Вы добавили сайт в закладки?
        Да
        Не


        Top 10 за месяц (Фильмы)