.
Авторизация | Регистрация
Хочешь лучшие торренты? Добавь свой email!
Добавить
» » Белая футболка / White T (2013) DVB от MediaClub | P2 торрент скачать бесплатно




    Белая футболка / White T (2013) DVB от MediaClub | P2 торрент скачать бесплатно

    Опубликовал: Админ | Дата: 27-02-2015, 11:10 | Просмотров: 345



    Детально о кино
    Русское название: Белая футболка
    Русское название в мировом прокате: White T
    Создали в: 2013
    Категория жанра: Kомедия
    Главный режиссер: Лэнс Фрэнк
    Актеры: Джерод Миксон, Ямал Миксон, Эрик Робертс, Дион Сандерс, Фэйзон Лав, Тони Кокс, Том ’Тайни’ Листер мл., Дот-Мари Джонс, Тоун Лок, Джерри Бедноб

    Сюжет фильма:
    Герберт и Генри братья-близнецы, мечтающие стать крупнейшими рэп-звездами. Их шансы на успех повышаются, после того как они покупают белую футболку с золотой биркой, благодаря которой они смогут выступить с самым легендарным рэппером в мире. Проблема лишь в том, что есть еврейский мальчик Кевин, мечтающий стать певцом, которому удается украсть столь ценную футболку…



    Снималось в: США
    Киностудия: Eleventh Entertainment, Prefect Films
    Время просмотра: 01:29:22
    Перевод текста: Профессиональный двухголосый

    Файл
    Качество фильма: DVB
    Информация о видео: MPEG-2, 1903 Кбит/с, 720x576@1024x576
    Информация о звуке: Русский (АС3, 2 ch, 192 Кбит/с) / (MP2, 2 ch, 192 Кбит/с)

    Семпл

    Скриншоты для ознакомления

    MI
    Общее
    Полное имя : Belaja.futbolka.2013.DVB.MediaClub.ts
    Формат : MPEG-TS
    Профиль формата : No PAT/PMT
    Размер файла : 1,50 Гбайт
    Продолжительность : 1 ч. 29 м.
    Режим общего битрейта : Переменный
    Общий поток : 2410 Кбит/сек

    Видео
    Идентификатор : 322 (0x142)
    Формат : MPEG Video
    Версия формата : Version 2
    Профиль формата : Main@Main
    Параметр BVOP формата : Да
    Параметр матрицы формата : Выборочная
    Параметр GOP формата : Variable
    Продолжительность : 1 ч. 29 м.
    Вид битрейта : Переменный
    Битрейт : 1903 Кбит/сек
    Максимальный битрейт : 15,0 Мбит/сек
    Ширина : 720 пикселей
    Высота : 576 пикселей
    Соотношение сторон : 16:9
    Частота кадров : 25,000 кадров/сек
    Стандарт вещания : PAL
    Цветовое пространство : YUV
    Субдискретизация насыщенности : 4:2:0
    Битовая глубина : 8 бит
    Тип развёртки : Чересстрочная
    Порядок развёртки : Верхнее поле первое
    Метод сжатия : С потерями
    Бит/(Пиксели*Кадры) : 0.184
    Размер потока : 1,19 Гбайт (79%)

    Аудио #1
    Идентификатор : 405 (0x195)
    Формат : MPEG Audio
    Версия формата : Version 1
    Профиль формата : Layer 2
    Продолжительность : 1 ч. 29 м.
    Вид битрейта : Постоянный
    Битрейт : 192 Кбит/сек
    Каналы : 2 канала
    Частота : 48,0 КГц
    Метод сжатия : С потерями
    Задержка видео : -273 мс.
    Размер потока : 123 Мбайт (8%)

    Аудио #2
    Идентификатор : 435 (0x1B3)
    Формат : AC-3
    Формат/Информация : Audio Coding 3
    Расширение режима : CM (complete main)
    Параметр Endianness формата : Big
    Продолжительность : 1 ч. 29 м.
    Вид битрейта : Постоянный
    Битрейт : 192 Кбит/сек
    Каналы : 2 канала
    Расположение каналов : Front: L R
    Частота : 48,0 КГц
    Битовая глубина : 16 бит
    Метод сжатия : С потерями
    Задержка видео : -361 мс.
    Размер потока : 123 Мбайт (8%)


    Релиз подготовил:
    Залил: poja
    Размер скачиваемого торрента: 1.50 GB (1614992192 Bytes)

    Белая футболка / White T (2013) DVB от MediaClub | P2 торрент скачать бесплатно
    загрузка...
    Рейтинг →
     (голосов: 1, оценка 4/5, голосовать можно 1 раз )

    Другие торренты по теме:

  • Белая футболка / White T (2013) SATRip от MediaClub | P2


    • Комментарии (0):

      Информация

      Информация

        Посетители, находящиеся в группе Гости, не могут оставлять комментарии в данной новости.

        ↓ Меню



        ↓ Опрос

        А Вы добавили сайт в закладки?
        Да
        Не


        Top 10 за месяц (Фильмы)