.
Авторизация | Регистрация
» » Одержимая / Crush (2013) BDRip 720p от CINEMANIA | P2, L1 торрент скачать бесплатно




    Одержимая / Crush (2013) BDRip 720p от CINEMANIA | P2, L1 торрент скачать бесплатно

    Опубликовал: Админ | Дата: 27-02-2015, 11:10 | Просмотров: 262



    Детально о кино
    Русское название: Одержимая
    Русское название в мировом прокате: Crush
    Создали в: 2013
    Категория жанра: триллер
    Главный режиссер: Марк Стивен Джонсон
    Актеры: Лукас Тилл, Сара Болджер, Кристал Рид, Мередит Сэленджер, Ли Уоннелл, Камилла Гуати, Майкл Лэндис, Никки СуХу, Рейд Юинг, Айзая Мустафа

    Сюжет фильма:
    Бесс – симпатичная, но чрезвычайно застенчивая девушка, которой не всегда удается прийти к взаимопониманию с окружающими. Когда ей пришло время влюбиться, Бесс нашла себе не молодого человека, а настоящий идеал – придуманный образ, воплотившийся в футболисте Скотте, учащемся в одной с ней школе. Одной короткой встречи, произошедшей во время рутинной пробежки Скотта, оказалось достаточно, чтобы Бесс направила на него весь запас своих нерастраченных нежных чувств.

    Увлечение, поначалу выражающееся в полных тоски взглядах, любовных посланиях и коротких приветствиях, постепенно переросло в опасную одержимость. И девушка Скотта, и его друзья начали замечать, что скромница Бесс уделяет ему необычно много внимания, а вскоре и Скотт, превыше всего ставящий свои спортивные успехи, почувствовал, что у него и правда появилась поклонница. Даже если бы Бесс постаралась забыть о Скотте и жить своей жизнью, она вряд ли смогла бы что-то изменить, а поскольку отказываться от своих чувств поклонница не намерена, и Скотту, и его окружению предстоит не самое легкое время...



    Снималось в: США
    Время просмотра: 01:34:51
    Тип перевода:
    Профессиональное (двухголосое) студия Elrom
    Любительское (одноголосое) ХихиДок

    Файл
    Тип видео: MKV
    Качество фильма: BDRip 720p EbP
    Информация о видео: 4687 kb/s, 1280x720
    Информация о звуке:
    Russian: студия Elrom / ХихиДок: AC3, 192 kb/s (2 ch)
    English: AC3, 640 kb/s (6 ch)
    Субтитры: English
    Дополнительно: Сохранены оригинальные чаптеры как на Blu-Ray
    Размер скачиваемого торрента: 3.86 Gb
    Скачать: Сэмпл

    Релиз группы:




    NFO
    Общее
    Crush.2013.Blu.Ray.720p.CINEMANIA.mkv
    Формат : Matroska
    Версия формата : Version 4 / Version 2
    Размер файла : 3,86 Гбайт
    Продолжительность : 1 ч. 34 м.
    Общий поток : 5827 Кбит/сек
    Название фильма : Release Group CINEMANIA
    Дата кодирования : UTC 2014-02-01 15:17:29
    Программа кодирования : mkvmerge v6.7.0 (;Back to the Ground;) 64bit built on Jan 8 2014 15:10:52
    Библиотека кодирования : libebml v1.3.0 libmatroska v1.4.1

    Видео
    Идентификатор : 1
    Формат : AVC
    Формат/Информация : Advanced Video Codec
    Профиль формата : High@L4.1
    Параметр CABAC формата : Да
    Параметр ReFrames формата : 9 кадров
    Идентификатор кодека : V_MPEG4/ISO/AVC
    Продолжительность : 1 ч. 34 м.
    Битрейт : 4687 Кбит/сек
    Ширина : 1280 пикселей
    Высота : 720 пикселей
    Соотношение сторон : 16:9
    Режим частоты кадров : Постоянный
    Частота кадров : 23,976 кадра/сек
    Цветовое пространство : YUV
    Субдискретизация насыщенности : 4:2:0
    Битовая глубина : 8 бит
    Тип развёртки : Прогрессивная
    Бит/(Пиксели*Кадры) : 0.212
    Размер потока : 3,11 Гбайт (80%)
    Заголовок : Release Group CINEMANIA
    Язык : English
    Default : Да
    Forced : Нет

    Аудио #1
    Идентификатор : 2
    Формат : AC-3
    Формат/Информация : Audio Coding 3
    Расширение режима : CM (complete main)
    Параметр Endianness формата : Big
    Идентификатор кодека : A_AC3
    Продолжительность : 1 ч. 34 м.
    Вид битрейта : Постоянный
    Битрейт : 192 Кбит/сек
    Каналы : 2 канала
    Расположение каналов : Front: L R
    Частота : 48,0 КГц
    Битовая глубина : 16 бит
    Метод сжатия : С потерями
    Размер потока : 130 Мбайт (3%)
    Заголовок : Elrom
    Язык : Russian
    Default : Да
    Forced : Да

    Аудио #2
    Идентификатор : 3
    Формат : AC-3
    Формат/Информация : Audio Coding 3
    Расширение режима : CM (complete main)
    Параметр Endianness формата : Big
    Идентификатор кодека : A_AC3
    Продолжительность : 1 ч. 34 м.
    Вид битрейта : Постоянный
    Битрейт : 192 Кбит/сек
    Каналы : 2 канала
    Расположение каналов : Front: L R
    Частота : 48,0 КГц
    Битовая глубина : 16 бит
    Метод сжатия : С потерями
    Размер потока : 130 Мбайт (3%)
    Заголовок : ХиХиДок
    Язык : Russian
    Default : Нет
    Forced : Нет

    Аудио #3
    Идентификатор : 4
    Формат : AC-3
    Формат/Информация : Audio Coding 3
    Расширение режима : CM (complete main)
    Параметр Endianness формата : Big
    Идентификатор кодека : A_AC3
    Продолжительность : 1 ч. 34 м.
    Вид битрейта : Постоянный
    Битрейт : 640 Кбит/сек
    Каналы : 6 каналов
    Расположение каналов : Front: L C R, Side: L R, LFE
    Частота : 48,0 КГц
    Битовая глубина : 16 бит
    Метод сжатия : С потерями
    Размер потока : 434 Мбайт (11%)
    Язык : English
    Default : Нет
    Forced : Нет

    Текст
    Идентификатор : 5
    Формат : UTF-8
    Идентификатор кодека : S_TEXT/UTF8
    Идентификатор кодека/Информация : UTF-8 Plain Text
    Язык : English
    Default : Нет
    Forced : Нет

    Меню
    00:00:00.000 : en:00:00:00.000
    00:08:55.326 : en:00:08:55.326
    00:16:25.985 : en:00:16:25.985
    00:24:31.553 : en:00:24:31.553
    00:32:20.981 : en:00:32:20.981
    00:42:06.482 : en:00:42:06.482
    00:49:13.325 : en:00:49:13.325
    00:56:01.525 : en:00:56:01.525
    01:03:18.878 : en:01:03:18.878
    01:12:36.769 : en:01:12:36.769
    01:20:16.478 : en:01:20:16.478
    01:29:03.922 : en:01:29:03.922


    Залил: DGEKIGAN
    Размер скачиваемого торрента: 3.86 GB (4145705617 Bytes)

    Одержимая / Crush (2013) BDRip 720p от CINEMANIA | P2, L1 торрент скачать бесплатно
    загрузка...
    Рейтинг →
     (голосов: 1, оценка 4/5, голосовать можно 1 раз )

    Другие торренты по теме:

  • Малабимба / Одержимая дьяволом / Malabimba / The Malicious Whore (1979) DVDRip-AVC от olegek70 | L1 торрент скачать бесплатно
  • 30 ночей паранормального явления с одержимой девушкой с татуировкой дракона / 30 Nights of Paranormal Activity with the Devil Inside the Girl with the Dragon Tattoo (2012) WEB-DLRip | L2 торрент скачать бесплатно
  • Одержимая / Possessed / Living Death / Disbelief Hell / Hell of the Non-Believers / Bool-sin-ji-ok (2009) DVDRip | L2 торрент скачать бесплатно
  • Одержимые / American Crime / The Afflicted (2010) BDRip 720p торрент скачать бесплатно
  • Одержимый / Hellbent (2004) DVDRip торрент скачать бесплатно
  • Одержимость / Possession (2002) DVDRip от Scarabey | P торрент скачать бесплатно
  • Одержимая / Possession (1981) BDRip-AVC от Rulya74 | P2 торрент скачать бесплатно
  • Одержимость / Obsessed (2009) BDRip 1080p торрент скачать бесплатно


    • Комментарии (0):

      Информация

      Информация

        Посетители, находящиеся в группе Гости, не могут оставлять комментарии в данной новости.

        ↓ Меню



        ↓ Опрос

        А Вы добавили сайт в закладки?
        Да
        Не


        Top 10 за неделю (Фильмы)