.
Авторизация | Регистрация
» » Советник / The Counselor (2013) BDRemux 1080p от ExKinoRay | Extended Cut | Лицензия скачать через торрент бесплатно




    Советник / The Counselor (2013) BDRemux 1080p от ExKinoRay | Extended Cut | Лицензия скачать через торрент бесплатно

    Опубликовал: Админ | Дата: 27-02-2015, 11:10 | Просмотров: 417



    Детально о кино

    Русское название: Советник
    Русское название в мировом прокате: The Counselor
    Создали в: 2013
    Категория жанра: Триллер, драма, криминал
    Снималось в: США, Великобритания, киностудия
    Главный режиссер: Ридли Скотт
    Актеры: Майкл Фассбендер, Пенелопа Крус, Кэмерон Диаз, Хавьер Бардем, Брэд Питт, Бруно Ганц, Рози Перес, Тоби Кеббелл, Эмма Ригби, Эдгар Рамирес



    Сюжет фильма: Успешный адвокат, стоящий практически на вершине успеха и на пороге собственной свадьбы, из любопытства и, конечно, ради денег соглашается на предложение своего давнего знакомого, имеющего тесные связи с преступным миром, перевезти из Мексики в США партию кокаина стоимостью 20 млн. долл.






    Файл

    Качество фильма: Blu-Ray Remux (1080p)
    Информация о видео: MPEG-4 AVC, 19854 Кбит/с, 1920x1080, 23.976 кадр/с
    Информация о звуке: Русский (AC3, 6 ch, 640 Кбит/с), (DTS, 6 ch, 768 Кбит/с), английский (AC3, 6 ch, 640 Кбит/с), (DTS-HD MA, 6 ch, 3719 Кбит/с)
    Размер скачиваемого торрента: 24.58 ГБ
    Время просмотра: 02:17:56
    Перевод текста: Дублированный
    Субтитры: Русские, латышские, литовские, эстонские, украинские, английские


    • Расширенные места, переведены форсированными субтитрами!


    За исходник, большое спасибо HDClub
    Сохранены оригинальные чаптеры как на Blu-Ray


    Инфо-файл

    Общее
    Уникальный идентификатор : 222180716998538247237634962669298871007 (0xA72673188BC1C17AB16F9C528B256ADF)
    Полное имя : D:ЗагрузкиThe.Counselor.2013.(Extended.Cut).BDRemux.(1080p.)ExKinoRay.mkv
    Формат : Matroska
    Версия формата : Version 2
    Размер файла : 24,6 Гбайт
    Продолжительность : 2 ч. 17 м.
    Режим общего битрейта : Переменный
    Общий поток : 25,5 Мбит/сек
    Название фильма : Советник.(Расширенная версия).2013.Сборка: ollan
    Дата кодирования : UTC 2014-02-02 13:55:48
    Программа кодирования : mkvmerge v5.6.0 (;Kenya Kane;) built on May 27 2012 16:44:04
    Библиотека кодирования : libebml v1.2.3 libmatroska v1.3.0

    Видео
    Идентификатор : 1
    Формат : AVC
    Формат/Информация : Advanced Video Codec
    Профиль формата : High@L4.1
    Параметр CABAC формата : Да
    Параметр ReFrames формата : 4 кадра
    Идентификатор кодека : V_MPEG4/ISO/AVC
    Продолжительность : 2 ч. 17 м.
    Вид битрейта : Переменный
    Максимальный битрейт : 38,0 Мбит/сек
    Ширина : 1920 пикселей
    Высота : 1080 пикселей
    Соотношение сторон : 16:9
    Режим частоты кадров : Постоянный
    Частота кадров : 23,976 кадра/сек
    Цветовое пространство : YUV
    Субдискретизация насыщенности : 4:2:0
    Битовая глубина : 8 бит
    Тип развёртки : Прогрессивная
    Default : Да
    Forced : Нет

    Аудио #1
    Идентификатор : 2
    Формат : AC-3
    Формат/Информация : Audio Coding 3
    Расширение режима : CM (complete main)
    Параметр Endianness формата : Big
    Идентификатор кодека : A_AC3
    Продолжительность : 2 ч. 17 м.
    Вид битрейта : Постоянный
    Битрейт : 640 Кбит/сек
    Каналы : 6 каналов
    Расположение каналов : Front: L C R, Side: L R, LFE
    Частота : 48,0 КГц
    Битовая глубина : 16 бит
    Метод сжатия : С потерями
    Размер потока : 631 Мбайт (3%)
    Заголовок : Дублированный (Лицензия)
    Язык : Russian
    Default : Да
    Forced : Да

    Аудио #2
    Идентификатор : 3
    Формат : DTS
    Формат/Информация : Digital Theater Systems
    Режим : 16
    Параметр Endianness формата : Big
    Идентификатор кодека : A_DTS
    Продолжительность : 2 ч. 17 м.
    Вид битрейта : Постоянный
    Битрейт : 755 Кбит/сек
    Каналы : 6 каналов
    Расположение каналов : Front: L C R, Side: L R, LFE
    Частота : 48,0 КГц
    Битовая глубина : 24 бит
    Метод сжатия : С потерями
    Размер потока : 744 Мбайт (3%)
    Заголовок : Дублированный (Лицензия)
    Язык : Russian
    Default : Нет
    Forced : Нет

    Аудио #3
    Идентификатор : 4
    Формат : AC-3
    Формат/Информация : Audio Coding 3
    Расширение режима : CM (complete main)
    Параметр Endianness формата : Big
    Идентификатор кодека : A_AC3
    Продолжительность : 2 ч. 17 м.
    Вид битрейта : Постоянный
    Битрейт : 640 Кбит/сек
    Каналы : 6 каналов
    Расположение каналов : Front: L C R, Side: L R, LFE
    Частота : 48,0 КГц
    Битовая глубина : 16 бит
    Метод сжатия : С потерями
    Размер потока : 631 Мбайт (3%)
    Язык : English
    Default : Нет
    Forced : Нет

    Аудио #4
    Идентификатор : 5
    Формат : DTS
    Формат/Информация : Digital Theater Systems
    Профиль формата : MA / Core
    Режим : 16
    Параметр Endianness формата : Big
    Идентификатор кодека : A_DTS
    Продолжительность : 2 ч. 17 м.
    Вид битрейта : Переменный
    Битрейт : Неизвестно / 1509 Кбит/сек
    Каналы : 6 каналов
    Расположение каналов : Front: L C R, Side: L R, LFE
    Частота : 48,0 КГц
    Битовая глубина : 24 бит
    Метод сжатия : Без потерь / Lossy
    Язык : English
    Default : Нет
    Forced : Нет

    Текст #1
    Идентификатор : 6
    Формат : UTF-8
    Идентификатор кодека : S_TEXT/UTF8
    Идентификатор кодека/Информация : UTF-8 Plain Text
    Заголовок : Forced
    Язык : Russian
    Default : Да
    Forced : Да

    Текст #2
    Идентификатор : 7
    Формат : UTF-8
    Идентификатор кодека : S_TEXT/UTF8
    Идентификатор кодека/Информация : UTF-8 Plain Text
    Заголовок : Full
    Язык : Russian
    Default : Нет
    Forced : Нет

    Текст #3
    Идентификатор : 8
    Формат : UTF-8
    Идентификатор кодека : S_TEXT/UTF8
    Идентификатор кодека/Информация : UTF-8 Plain Text
    Заголовок : Full
    Язык : Latvian
    Default : Нет
    Forced : Нет

    Текст #4
    Идентификатор : 9
    Формат : UTF-8
    Идентификатор кодека : S_TEXT/UTF8
    Идентификатор кодека/Информация : UTF-8 Plain Text
    Заголовок : Full
    Язык : Lithuanian
    Default : Нет
    Forced : Нет

    Текст #5
    Идентификатор : 10
    Формат : UTF-8
    Идентификатор кодека : S_TEXT/UTF8
    Идентификатор кодека/Информация : UTF-8 Plain Text
    Заголовок : Full
    Язык : Estonian
    Default : Нет
    Forced : Нет

    Текст #6
    Идентификатор : 11
    Формат : UTF-8
    Идентификатор кодека : S_TEXT/UTF8
    Идентификатор кодека/Информация : UTF-8 Plain Text
    Заголовок : Full
    Язык : Ukrainian
    Default : Нет
    Forced : Нет

    Меню
    00:00:00.000 : :Chapter 01
    00:06:38.022 : :Chapter 02
    00:09:47.086 : :Chapter 03
    00:12:12.565 : :Chapter 04
    00:19:50.606 : :Chapter 05
    00:27:59.677 : :Chapter 06
    00:31:31.973 : :Chapter 07
    00:34:35.239 : :Chapter 08
    00:37:13.856 : :Chapter 09
    00:46:31.830 : :Chapter 10
    00:50:45.876 : :Chapter 11
    00:56:54.494 : :Chapter 12
    00:58:13.448 : :Chapter 13
    00:59:55.258 : :Chapter 14
    01:02:37.628 : :Chapter 15
    01:04:40.710 : :Chapter 16
    01:10:51.371 : :Chapter 17
    01:15:33.487 : :Chapter 18
    01:17:44.033 : :Chapter 19
    01:19:53.705 : :Chapter 20
    01:25:41.302 : :Chapter 21
    01:30:10.112 : :Chapter 22
    01:34:25.783 : :Chapter 23
    01:38:29.778 : :Chapter 24
    01:41:34.838 : :Chapter 25
    01:44:25.842 : :Chapter 26
    01:46:19.372 : :Chapter 27
    01:48:58.363 : :Chapter 28
    01:51:45.907 : :Chapter 29
    01:58:04.452 : :Chapter 30
    01:59:36.252 : :Chapter 31
    02:03:57.137 : :Chapter 32
    02:05:26.310 : :Chapter 33
    02:08:22.778 : :Chapter 34
    02:10:27.944 : :Chapter 35
    02:13:53.650 : :Chapter 36
    02:17:56.100 : :Chapter 37



    Скриншоты для ознакомления







    Релиз подготовил: Сборка:
    Залил: ollan
    Размер скачиваемого торрента: 24.58 GB (26397069781 Bytes)

    Советник / The Counselor (2013) BDRemux 1080p от ExKinoRay | Extended Cut | Лицензия скачать через торрент бесплатно
    загрузка...
    Рейтинг →
     (голосов: 1, оценка 5/5, голосовать можно 1 раз )

    Другие торренты по теме:

  • Советник / The Counselor (2013) HD 1080p | Тизер
  • Кормак МакКарти / Cormac McCarthy - Советник / The Counselor (2013) DOC
  • OST. Энри Лолашвили - Статский советник (2009) MP3
  • OST. Энри Лолашвили - Статский советник (2009) APE
  • Советник (2013) скачать через торрент бесплатно
  • Советник / The Counselor (2013) CAMRip от INTERCINEMA
  • Советник / The Counselor (2013) WEB-DL 720p | Звук с CAMRip скачать через торрент бесплатно
  • Советник / The Counselor (2013) WEB-DLRip | Звук с CAMRip скачать через торрент бесплатно


    • Комментарии (0):

      Информация

      Информация

        Посетители, находящиеся в группе Гости, не могут оставлять комментарии в данной новости.

        ↓ Меню



        ↓ Опрос

        А Вы добавили сайт в закладки?
        Да
        Не


        Top 10 за месяц (Фильмы)