.
Авторизация | Регистрация
Хочешь лучшие торренты? Добавь свой email!
Добавить
» » Сицилийский клан / Le clan des Siciliens (1969) BDRip by msltel P, A скачать через торрент бесплатно




    Сицилийский клан / Le clan des Siciliens (1969) BDRip by msltel P, A скачать через торрент бесплатно

    Опубликовал: Админ | Дата: 27-02-2015, 11:10 | Просмотров: 325



    Русское название: Сицилийский клан
    Русское название в мировом прокате: Le clan des Siciliens
    Создали в: 1969
    Категория жанра: Драма, криминал
    Снималось в: Франция, Les Films du Si?cle
    Главный режиссер: Анри Вернёй
    Актеры: Жан Габен, Ален Делон, Лино Вентура, Ирина Демик, Амедео Наццари, Филипп Баронне, Карен Блангернон, Ив Брэнвиль, Жерар Бур, Элиза Чегани, Рауль Дельфосс, Жак Дуби, Ив Лефевр, Эдвард

    Сюжет фильма: Молодой гангстер Роже Сарте совершает побег из фургона, перевозящего его в тюрьму из Дворца правосудия. Всё проходит удачно, благодаря помощи главы сицилийского клана Витторио Маналезе. Роже нужен ему для участия в дерзком ограблении. Клан намерен совершить кражу уникальной коллекции драгоценностей, собранной в Риме для международной выставки. К операции готовятся долго и тщательно. Поскольку выставка будет проходить в Нью-Йорке, американский друг Витторио Тони Никозиа предлагает привести план в исполнение во время полёта и захватить добычу... Криминальная драма Анри Вернея по одноимённому роману Огюста Ле Бретона.

    Качество фильма: BDRip
    Информация о видео: XviD, 1694 Кбит/с, 720х304
    Информация о звуке: Русский (AC3, 6 ch, 384 Кбит/с), французский (AC3, 1 ch, 192 Кбит/c)
    Размер скачиваемого торрента: 2.32 ГБ
    Время просмотра: 02:04:46
    Перевод текста: Профессиональный многоголосый, авторский (Роман Янкелевич)
    Субтитры Русские, английские

    Исходник: ChuckNorriss (HDtracker)

    Сравнение с исходником



    MediaInfo
    Общее
    Полное имя : E:VideoSicilijskij klan.1969.XviD.BDRipSicilijskij klan.1969.AVO.rus.Р.Янкелевич.ac3
    Формат : AC-3
    Формат/Информация : Audio Coding 3
    Размер файла : 343 Мбайт
    Продолжительность : 2 ч. 4 м.
    Режим общего битрейта : Постоянный
    Общий поток : 384 Кбит/сек

    Аудио
    Формат : AC-3
    Формат/Информация : Audio Coding 3
    Расширение режима : CM (complete main)
    Параметр Endianness формата : Big
    Продолжительность : 2 ч. 4 м.
    Вид битрейта : Постоянный
    Битрейт : 384 Кбит/сек
    Каналы : 6 каналов
    Расположение каналов : Front: L C R, Side: L R, LFE
    Частота : 48,0 КГц
    Битовая глубина : 16 бит
    Метод сжатия : С потерями
    Размер потока : 343 Мбайт (100%)

    Общее
    Полное имя : E:VideoSicilijskij klan.1969.XviD.BDRipSicilijskij klan.1969.eng.srt
    Размер файла : 123 Кбайт

    Общее
    Полное имя : E:VideoSicilijskij klan.1969.XviD.BDRipSicilijskij klan.1969.Original.fre.ac3
    Формат : AC-3
    Формат/Информация : Audio Coding 3
    Размер файла : 171 Мбайт
    Продолжительность : 2 ч. 4 м.
    Режим общего битрейта : Постоянный
    Общий поток : 192 Кбит/сек

    Аудио
    Формат : AC-3
    Формат/Информация : Audio Coding 3
    Расширение режима : CM (complete main)
    Параметр Endianness формата : Big
    Продолжительность : 2 ч. 4 м.
    Вид битрейта : Постоянный
    Битрейт : 192 Кбит/сек
    Каналы : 1 канал
    Расположение каналов : Front: C
    Частота : 48,0 КГц
    Битовая глубина : 16 бит
    Метод сжатия : С потерями
    Размер потока : 171 Мбайт (100%)

    Общее
    Полное имя : E:VideoSicilijskij klan.1969.XviD.BDRipSicilijskij klan.1969.rus.srt
    Размер файла : 134 Кбайт

    Общее
    Полное имя : E:VideoSicilijskij klan.1969.XviD.BDRipSicilijskij klan.1969.XviD.BDRip.avi
    Формат : AVI
    Формат/Информация : Audio Video Interleave
    Размер файла : 1,82 Гбайт
    Продолжительность : 2 ч. 4 м.
    Общий поток : 2087 Кбит/сек
    Программа кодирования : VirtualDubMod 1.5.10.2 (build 2540/release)
    Библиотека кодирования : VirtualDubMod build 2540/release

    Видео
    Идентификатор : 0
    Формат : MPEG-4 Visual
    Профиль формата : Advanced Simple@L5
    Параметр BVOP формата : 1
    Параметр QPel формата : Нет
    Параметр GMC формата : Без точки перехода
    Параметр матрицы формата : Default (H.263)
    Режим смешивания : Сжатый битовый поток
    Идентификатор кодека : XVID
    Идентификатор кодека/Подсказка : XviD
    Продолжительность : 2 ч. 4 м.
    Битрейт : 1694 Кбит/сек
    Ширина : 720 пикселей
    Высота : 304 пикселя
    Соотношение сторон : 2,35:1
    Частота кадров : 23,976 кадра/сек
    Цветовое пространство : YUV
    Субдискретизация насыщенности : 4:2:0
    Битовая глубина : 8 бит
    Тип развёртки : Прогрессивная
    Метод сжатия : С потерями
    Бит/(Пиксели*Кадры) : 0.323
    Размер потока : 1,48 Гбайт (81%)
    Библиотека кодирования : XviD 1.2.1 (UTC 2008-12-04)

    Аудио
    Идентификатор : 1
    Формат : AC-3
    Формат/Информация : Audio Coding 3
    Расширение режима : CM (complete main)
    Параметр Endianness формата : Big
    Идентификатор кодека : 2000
    Продолжительность : 2 ч. 4 м.
    Вид битрейта : Постоянный
    Битрейт : 384 Кбит/сек
    Каналы : 6 каналов
    Расположение каналов : Front: L C R, Side: L R, LFE
    Частота : 48,0 КГц
    Битовая глубина : 16 бит
    Метод сжатия : С потерями
    Размер потока : 343 Мбайт (18%)
    Выравнивание : Разделение по промежуткам
    Продолжительность промежутка : 42 мс. (1,00 видеокадр)
    Время предзагрузки промежутка : 500 мс.
    Скриншоты для ознакомления



    Залил: msltel
    Размер скачиваемого торрента: 2.32 GB (2492358014 Bytes)

    Сицилийский клан / Le clan des Siciliens (1969) BDRip by msltel P, A скачать через торрент бесплатно
    загрузка...
    Рейтинг →
     (голосов: 1, оценка 4/5, голосовать можно 1 раз )

    Другие торренты по теме:

  • Сицилийский клан / Le clan des Siciliens (1969) BDRip 1080p от MediaClub скачать через торрент бесплатно
  • Сицилийский клан / Le clan des Siciliens (1969) BDRip-AVC от MediaClub
  • Сицилийский клан / Le clan des Siciliens (1969) BDRip 720p by msltel P, A | Французская версия


    • Комментарии (0):

      Информация

      Информация

        Посетители, находящиеся в группе Гости, не могут оставлять комментарии в данной новости.

        ↓ Меню



        ↓ Опрос

        А Вы добавили сайт в закладки?
        Да
        Не


        Top 10 за месяц (Фильмы)