.
Авторизация | Регистрация
Хочешь лучшие торренты? Добавь свой email!
Добавить
» » Афтершок / Aftershock (2012) BDRemux 1080p от GORESEWAGE скачать через торрент бесплатно




    Афтершок / Aftershock (2012) BDRemux 1080p от GORESEWAGE скачать через торрент бесплатно

    Опубликовал: Админ | Дата: 27-02-2015, 11:10 | Просмотров: 295



    Русское название: Афтершок
    Русское название в мировом прокате: Aftershock
    Создали в: 2012
    Снималось в: США, Чили
    Категория жанра: ужасы, триллер, драма, криминал
    Время просмотра: 01:29:16.351
    Перевод текста 1: Профессиональный (многоголосый закадровый) R5
    Перевод текста 2: Любительский (двухголосый закадровый) den904 DeadSno
    Оригинальная аудиодорожка: Английская
    Субтитры: Английские (Full, SDH), испанские (Full)
    Киностудия: Cross Creek Pictures, Dragonfly Entertainment, Sobras.com Producciones

    Главный режиссёр: Николас Лопез / Nicol?s L?pez

    Актеры: Элай Рот, Андреа Ошварт, Ариэль Леви, Наташа Яровенко, Николас Мартинез, Лоренца Иззо, Марсиаль Тагле, Рамон Льяо, Игнасия Алламанд, Пас Баскуньян и др.

    Сюжет: Находясь в Чили, группа путешественников посещает подземный ночной клуб в тот самый момент, когда начинается мощное землетрясение. Выбравшись на поверхность, они тут же понимают, что кошмар для них только начался.





    Качество фильма: BDRemux 1080p (Aftershock.2012.BluRay.1080p.AVC.DTS-HD.MA5.1-CHDBits)
    Контейнер: MKV
    Информация о видео кодек: MPEG-4 AVC Video
    Информация о звуке кодек: DTS-HD MA / AC3
    Информация о видео: MPEG-4 AVC Video / 22788 kbps / 1920x1080p / 23,976 fps / 16:9 / High Profile 4.1
    Информация о звуке 1: Russian / AC3 / 5.1 / 48 kHz / 448 kbps / 16-bit / MVO R5
    Информация о звуке 2: Russian / AC3 / 5.1 / 48 kHz / 384 kbps / 16-bit / DVO den904 DeadSno
    Информация о звуке 3: English / DTS-HD MA / 5.1 / 48 kHz / 3986 kbps / 24-bit (DTS Core: 5.1 / 48 kHz / 1536 kbps / 24-bit) / Original
    Информация о звуке 4: English / AC3 / 2.0 / 48 kHz / 192 kbps / 16-bit / Commentary
    Навигация по главам: да

    Скриншот с названием фильма

    Скриншоты для ознакомления

    Полноразмерные постеры

    MediaInfo
    C:/GORESEWAGE/Aftershock 2012 BDRemux 1080p GORESEWAGE.mkv
    General
    Unique ID : 200510379586767097231272379702674251130 (0x96D8E4F8C09E1A858238C79412C8DD7A)
    Complete name : C:/GORESEWAGE/Aftershock 2012 BDRemux 1080p GORESEWAGE.mkv
    Format : Matroska
    Format version : Version 4 / Version 2
    File size : 17.3 GiB
    Duration : 1h 29mn
    Overall bit rate mode : Variable
    Overall bit rate : 27.8 Mbps
    Movie name : Aftershock 2012 BDRemux 1080p GORESEWAGE
    Encoded date : UTC 2014-02-02 05:53:09
    Writing application : mkvmerge v6.7.0 (;Back to the Ground;) 64bit built on Jan 8 2014 15:10:52
    Writing library : libebml v1.3.0 libmatroska v1.4.1
    Attachment : Yes
    Video #1
    ID : 1
    Format : AVC
    Format/Info : Advanced Video Codec
    Format profile : High@L4.1
    Format settings, CABAC : Yes
    Format settings, ReFrames : 2 frames
    Codec ID : V_MPEG4/ISO/AVC
    Duration : 1h 29mn
    Bit rate mode : Variable
    Width : 1 920 pixels
    Height : 1 080 pixels
    Display aspect ratio : 16:9
    Frame rate mode : Constant
    Frame rate : 23.976 fps
    Color space : YUV
    Chroma subsampling : 4:2:0
    Bit depth : 8 bits
    Scan type : Progressive
    Title : Aftershock 2012 BDRemux 1080p GORESEWAGE
    Language : English
    Default : Yes
    Forced : No
    Audio #2
    ID : 2
    Format : AC-3
    Format/Info : Audio Coding 3
    Mode extension : CM (complete main)
    Format settings, Endianness : Big
    Codec ID : A_AC3
    Duration : 1h 29mn
    Bit rate mode : Constant
    Bit rate : 448 Kbps
    Channel count : 6 channels
    Channel positions : Front: L C R, Side: L R, LFE
    Sampling rate : 48.0 KHz
    Bit depth : 16 bits
    Compression mode : Lossy
    Stream size : 286 MiB (2%)
    Title : MVO R5
    Language : Russian
    Default : Yes
    Forced : No
    Audio #3
    ID : 3
    Format : AC-3
    Format/Info : Audio Coding 3
    Mode extension : CM (complete main)
    Format settings, Endianness : Big
    Codec ID : A_AC3
    Duration : 1h 29mn
    Bit rate mode : Constant
    Bit rate : 384 Kbps
    Channel count : 6 channels
    Channel positions : Front: L C R, Side: L R, LFE
    Sampling rate : 48.0 KHz
    Bit depth : 16 bits
    Compression mode : Lossy
    Stream size : 245 MiB (1%)
    Title : DVO den904 DeadSno
    Language : Russian
    Default : No
    Forced : No
    Audio #4
    ID : 4
    Format : DTS
    Format/Info : Digital Theater Systems
    Format profile : MA / Core
    Mode : 16
    Format settings, Endianness : Big
    Codec ID : A_DTS
    Duration : 1h 29mn
    Bit rate mode : Variable
    Bit rate : Unknown / 1 509 Kbps
    Channel count : 6 channels
    Channel positions : Front: L C R, Side: L R, LFE
    Sampling rate : 48.0 KHz
    Bit depth : 24 bits
    Compression mode : Lossless / Lossy
    Title : Original
    Language : English
    Default : No
    Forced : No
    Audio #5
    ID : 5
    Format : AC-3
    Format/Info : Audio Coding 3
    Mode extension : CM (complete main)
    Format settings, Endianness : Big
    Codec ID : A_AC3
    Duration : 1h 29mn
    Bit rate mode : Constant
    Bit rate : 192 Kbps
    Channel count : 2 channels
    Channel positions : Front: L R
    Sampling rate : 48.0 KHz
    Bit depth : 16 bits
    Compression mode : Lossy
    Stream size : 123 MiB (1%)
    Title : Commentary
    Language : English
    Default : No
    Forced : No
    Text #6
    ID : 6
    Format : UTF-8
    Codec ID : S_TEXT/UTF8
    Codec ID/Info : UTF-8 Plain Text
    Title : Full
    Language : English
    Default : No
    Forced : No
    Text #7
    ID : 7
    Format : UTF-8
    Codec ID : S_TEXT/UTF8
    Codec ID/Info : UTF-8 Plain Text
    Title : SDH
    Language : English
    Default : No
    Forced : No
    Text #8
    ID : 8
    Format : UTF-8
    Codec ID : S_TEXT/UTF8
    Codec ID/Info : UTF-8 Plain Text
    Title : Full
    Language : Spanish
    Default : No
    Forced : No
    Menu
    00:00:00.000 : :Chapter 01
    00:03:39.260 : :Chapter 02
    00:07:31.742 : :Chapter 03
    00:16:05.673 : :Chapter 04
    00:23:28.407 : :Chapter 05
    00:30:26.407 : :Chapter 06
    00:38:32.184 : :Chapter 07
    00:45:00.614 : :Chapter 08
    00:50:40.954 : :Chapter 09
    00:56:45.944 : :Chapter 10
    01:04:07.176 : :Chapter 11
    01:12:24.381 : :Chapter 12
    01:20:05.842 : :Chapter 13
    01:23:56.865 : :Chapter 14
    01:29:16.100 : :Chapter 15

    Размер скачиваемого торрента: 17.34 GB (18616581768 Bytes)

    Афтершок / Aftershock (2012) BDRemux 1080p от GORESEWAGE скачать через торрент бесплатно
    загрузка...
    Рейтинг →
     (голосов: 1, оценка 3/5, голосовать можно 1 раз )

    Другие торренты по теме:

  • Афтершок / Aftershock (2012) WEB-DL 720p | L2
  • Афтершок / Aftershock (2012) HDRip | Р | Лицензия скачать через торрент бесплатно
  • Афтершок / Aftershock (2012) BDRip-AVC от HELLYWOOD | Лицензия скачать через торрент бесплатно
  • Афтершок / Aftershock (2012) DVD5 R5 от New-Team | P | лицензия скачать через торрент бесплатно
  • Афтершок / Aftershock (2012) HDRip от Sanjar NeoJet | КПК
  • Афтершок / Aftershock (2012) BDRip 720p от CINEMANIA | P, L2
  • Афтершок / Aftershock (2012) BDRip 1080p от CINEMANIA | P, L2


    • Комментарии (0):

      Информация

      Информация

        Посетители, находящиеся в группе Гости, не могут оставлять комментарии в данной новости.

        ↓ Меню



        ↓ Опрос

        А Вы добавили сайт в закладки?
        Да
        Не


        Top 10 за месяц (Фильмы)