.
Авторизация | Регистрация
Хочешь лучшие торренты? Добавь свой email!
Добавить
» » Запрещённый приём / Sucker Punch (2011) BDRip 1080p от GORESEWAGE | Extended Cut торрент скачать бесплатно




    Запрещённый приём / Sucker Punch (2011) BDRip 1080p от GORESEWAGE | Extended Cut торрент скачать бесплатно

    Опубликовал: Админ | Дата: 27-02-2015, 11:10 | Просмотров: 278



    Русское название: Запрещённый приём
    Русское название в мировом прокате: Sucker Punch
    Создали в: 2011
    Снималось в: США, Канада
    Категория жанра: фэнтези, боевик, триллер, приключения
    Время просмотра: 02:07:30
    Перевод текста 1: Профессиональный (дублированный) DVO Кубик в кубе (на расширенные сцены)
    Перевод текста 2: Профессиональный (дублированный) VO acolith (на расширенные сцены)
    Перевод текста 3: Профессиональный (двухголосый закадровый) Кубик в кубе
    Перевод текста 4: Авторский (одноголосый закадровый) А. Гаврилов
    Перевод текста 5: Одноголосый закадровый acolith
    Перевод текста 6: Одноголосый закадровый Doctor_Joker (Алексей Матвеев)
    Перевод текста 7: Одноголосый закадровый С. Рапсодов
    Перевод текста 8: Профессиональный (дублированный) Ukr
    Оригинальная аудиодорожка: Английская
    Субтитры: Русские (Forced Voronine, Full Voronine, SDH Voronine, Full Doctor_Joker), английские (Full, SDH)
    Киностудия: Warner Bros., Legendary Pictures, Cruel Unusual Films

    Главный режиссёр: Зак Снайдер / Zack Snyder

    Актеры: Эмили Браунинг, Эбби Корниш, Джена Мэлоун, Ванесса Энн Хадженс, Джейми Чунг, Карла Гуджино, Оскар Айзек, Джон Хэмм, Скотт Гленн, Ричард Цетрон и др.

    Сюжет: Действие развернётся в 1950 году. Молодую девушку по настоянию её злодейского отчима определяют в больницу для душевнобольных. Она выдумывает сказочный мир, где и начинает планировать свой побег - для этого ей нужно раздобыть пять предметов.



    Sample

    Качество фильма: BDRip 1080p (NiP)
    Контейнер: MKV
    Информация о видео кодек: MPEG-4 AVC Video
    Информация о звуке кодек: DTS / AC3
    Информация о видео: MPEG-4 AVC Video / 16000 kbps / 1920x800p / 23,976 fps / 2.40:1 / High Profile 4.1
    Информация о звуке 1: Russian / AC3 / 5.1 / 48 kHz / 640 kbps / 16-bit / Dub DVO Кубик в кубе
    Информация о звуке 2: Russian / AC3 / 5.1 / 48 kHz / 384 kbps / 16-bit / Dub VO acolith
    Информация о звуке 3: Russian / DTS / 5.1 / 48 kHz / 1536 kbps / 24-bit / DVO Кубик в кубе
    Информация о звуке 4: Russian / DTS / 5.1 / 48 kHz / 1536 kbps / 24-bit / AVO А. Гаврилов
    Информация о звуке 5: Russian / DTS / 5.1 / 48 kHz / 1536 kbps / 24-bit / VO acolith
    Информация о звуке 6: Russian / DTS / 5.1 / 48 kHz / 1536 kbps / 24-bit / VO Doctor_Joker (Алексей Матвеев)
    Информация о звуке 7: Russian / AC3 / 5.1 / 48 kHz / 640 kbps / 16-bit / VO С. Рапсодов
    Информация о звуке 8: Ukrainian / AC3 / 5.1 / 48 kHz / 640 kbps / 16-bit / Dub
    Информация о звуке 9: English / DTS / 5.1 / 48 kHz / 1536 kbps / 24-bit / Original
    Навигация по главам: да

    Скриншоты для ознакомления

    MediaInfo
    C:/GORESEWAGE/Sucker Punch 2011 Extended Cut BDRip 1080p GORESEWAGE.mkv
    General
    Unique ID : 254791723011690276250610686644307352352 (0xBFAF19D4200B51ECA369427C9D2BDB20)
    Complete name : C:/GORESEWAGE/Sucker Punch 2011 Extended Cut BDRip 1080p GORESEWAGE.mkv
    Format : Matroska
    Format version : Version 4 / Version 2
    File size : 23.3 GiB
    Duration : 2h 7mn
    Overall bit rate : 26.2 Mbps
    Movie name : Sucker Punch 2011 Extended Cut BDRip 1080p GORESEWAGE
    Encoded date : UTC 2014-02-03 17:41:11
    Writing application : mkvmerge v6.7.0 (;Back to the Ground;) 64bit built on Jan 8 2014 15:10:52
    Writing library : libebml v1.3.0 libmatroska v1.4.1
    Attachment : Yes
    Video #1
    ID : 1
    Format : AVC
    Format/Info : Advanced Video Codec
    Format profile : High@L4.1
    Format settings, CABAC : Yes
    Format settings, ReFrames : 5 frames
    Codec ID : V_MPEG4/ISO/AVC
    Duration : 2h 7mn
    Bit rate : 16.0 Mbps
    Width : 1 920 pixels
    Height : 800 pixels
    Display aspect ratio : 2.40:1
    Frame rate mode : Constant
    Frame rate : 23.976 fps
    Color space : YUV
    Chroma subsampling : 4:2:0
    Bit depth : 8 bits
    Scan type : Progressive
    Bits/(Pixel*Frame) : 0.434
    Stream size : 14.3 GiB (61%)
    Title : Sucker Punch 2011 Extended Cut BDRip 1080p GORESEWAGE
    Writing library : x264 core 116 r2044 392e762
    Encoding settings : cabac=1 / ref=5 / deblock=1:-3:-3 / analyse=0x3:0x113 / me=tesa / subme=11 / psy=1 / psy_rd=1.10:0.00 / mixed_ref=1 / me_range=16 / chroma_me=1 / trellis=2 / 8x8dct=1 / cqm=0 / deadzone=21,11 / fast_pskip=0 / chroma_qp_offset=-2 / threads=12 / sliced_threads=0 / nr=0 / decimate=1 / interlaced=0 / bluray_compat=0 / constrained_intra=0 / bframes=9 / b_pyramid=2 / b_adapt=2 / b_bias=0 / direct=1 / weightb=1 / open_gop=0 / weightp=2 / keyint=250 / keyint_min=23 / scenecut=40 / intra_refresh=0 / rc_lookahead=60 / rc=crf / mbtree=1 / crf=17.4 / qcomp=0.70 / qpmin=0 / qpmax=69 / qpstep=4 / vbv_maxrate=38000 / vbv_bufsize=38000 / crf_max=0.0 / nal_hrd=none / ip_ratio=1.40 / aq=2:0.65
    Language : English
    Default : Yes
    Forced : No
    Matrix coefficients : BT.709
    Audio #2
    ID : 2
    Format : AC-3
    Format/Info : Audio Coding 3
    Mode extension : CM (complete main)
    Format settings, Endianness : Big
    Codec ID : A_AC3
    Duration : 2h 7mn
    Bit rate mode : Constant
    Bit rate : 640 Kbps
    Channel count : 6 channels
    Channel positions : Front: L C R, Side: L R, LFE
    Sampling rate : 48.0 KHz
    Bit depth : 16 bits
    Compression mode : Lossy
    Stream size : 584 MiB (2%)
    Title : Dub DVO Кубик в кубе
    Language : Russian
    Default : Yes
    Forced : No
    Audio #3
    ID : 3
    Format : AC-3
    Format/Info : Audio Coding 3
    Mode extension : CM (complete main)
    Format settings, Endianness : Big
    Codec ID : A_AC3
    Duration : 2h 7mn
    Bit rate mode : Constant
    Bit rate : 384 Kbps
    Channel count : 6 channels
    Channel positions : Front: L C R, Side: L R, LFE
    Sampling rate : 48.0 KHz
    Bit depth : 16 bits
    Compression mode : Lossy
    Stream size : 350 MiB (1%)
    Title : Dub VO acolith
    Language : Russian
    Default : No
    Forced : No
    Audio #4
    ID : 4
    Format : DTS
    Format/Info : Digital Theater Systems
    Mode : 16
    Format settings, Endianness : Big
    Codec ID : A_DTS
    Duration : 2h 7mn
    Bit rate mode : Constant
    Bit rate : 1 509 Kbps
    Channel count : 6 channels
    Channel positions : Front: L C R, Side: L R, LFE
    Sampling rate : 48.0 KHz
    Bit depth : 24 bits
    Compression mode : Lossy
    Stream size : 1.34 GiB (6%)
    Title : DVO Кубик в кубе
    Language : Russian
    Default : No
    Forced : No
    Audio #5
    ID : 5
    Format : DTS
    Format/Info : Digital Theater Systems
    Mode : 16
    Format settings, Endianness : Big
    Codec ID : A_DTS
    Duration : 2h 7mn
    Bit rate mode : Constant
    Bit rate : 1 509 Kbps
    Channel count : 6 channels
    Channel positions : Front: L C R, Side: L R, LFE
    Sampling rate : 48.0 KHz
    Bit depth : 24 bits
    Compression mode : Lossy
    Stream size : 1.34 GiB (6%)
    Title : AVO Гаврилов
    Language : Russian
    Default : No
    Forced : No
    Audio #6
    ID : 6
    Format : DTS
    Format/Info : Digital Theater Systems
    Mode : 16
    Format settings, Endianness : Big
    Codec ID : A_DTS
    Duration : 2h 7mn
    Bit rate mode : Constant
    Bit rate : 1 509 Kbps
    Channel count : 6 channels
    Channel positions : Front: L C R, Side: L R, LFE
    Sampling rate : 48.0 KHz
    Bit depth : 24 bits
    Compression mode : Lossy
    Stream size : 1.34 GiB (6%)
    Title : VO acolith
    Language : Russian
    Default : No
    Forced : No
    Audio #7
    ID : 7
    Format : DTS
    Format/Info : Digital Theater Systems
    Mode : 16
    Format settings, Endianness : Big
    Codec ID : A_DTS
    Duration : 2h 7mn
    Bit rate mode : Constant
    Bit rate : 1 509 Kbps
    Channel count : 6 channels
    Channel positions : Front: L C R, Side: L R, LFE
    Sampling rate : 48.0 KHz
    Bit depth : 24 bits
    Compression mode : Lossy
    Stream size : 1.34 GiB (6%)
    Title : VO Doctor_Joker (Алексей Матвеев)
    Language : Russian
    Default : No
    Forced : No
    Audio #8
    ID : 8
    Format : AC-3
    Format/Info : Audio Coding 3
    Mode extension : CM (complete main)
    Format settings, Endianness : Big
    Codec ID : A_AC3
    Duration : 2h 7mn
    Bit rate mode : Constant
    Bit rate : 448 Kbps
    Channel count : 6 channels
    Channel positions : Front: L C R, Side: L R, LFE
    Sampling rate : 48.0 KHz
    Bit depth : 16 bits
    Compression mode : Lossy
    Stream size : 409 MiB (2%)
    Title : VO С. Рапсодов
    Language : Russian
    Default : No
    Forced : No
    Audio #9
    ID : 9
    Format : AC-3
    Format/Info : Audio Coding 3
    Mode extension : CM (complete main)
    Format settings, Endianness : Big
    Codec ID : A_AC3
    Duration : 2h 7mn
    Bit rate mode : Constant
    Bit rate : 640 Kbps
    Channel count : 6 channels
    Channel positions : Front: L C R, Side: L R, LFE
    Sampling rate : 48.0 KHz
    Bit depth : 16 bits
    Compression mode : Lossy
    Stream size : 584 MiB (2%)
    Title : Dub Ukr
    Language : Ukrainian
    Default : No
    Forced : No
    Audio #10
    ID : 10
    Format : DTS
    Format/Info : Digital Theater Systems
    Mode : 16
    Format settings, Endianness : Big
    Codec ID : A_DTS
    Duration : 2h 7mn
    Bit rate mode : Constant
    Bit rate : 1 509 Kbps
    Channel count : 6 channels
    Channel positions : Front: L C R, Side: L R, LFE
    Sampling rate : 48.0 KHz
    Bit depth : 24 bits
    Compression mode : Lossy
    Stream size : 1.34 GiB (6%)
    Title : Original
    Language : English
    Default : No
    Forced : No
    Text #11
    ID : 11
    Format : UTF-8
    Codec ID : S_TEXT/UTF8
    Codec ID/Info : UTF-8 Plain Text
    Title : Forced Voronine
    Language : Russian
    Default : Yes
    Forced : No
    Text #12
    ID : 12
    Format : UTF-8
    Codec ID : S_TEXT/UTF8
    Codec ID/Info : UTF-8 Plain Text
    Title : Full Voronine
    Language : Russian
    Default : No
    Forced : No
    Text #13
    ID : 13
    Format : UTF-8
    Codec ID : S_TEXT/UTF8
    Codec ID/Info : UTF-8 Plain Text
    Title : SDH Voronine
    Language : Russian
    Default : No
    Forced : No
    Text #14
    ID : 14
    Format : UTF-8
    Codec ID : S_TEXT/UTF8
    Codec ID/Info : UTF-8 Plain Text
    Title : Full Doctor_Joker
    Language : Russian
    Default : No
    Forced : No
    Text #15
    ID : 15
    Format : UTF-8
    Codec ID : S_TEXT/UTF8
    Codec ID/Info : UTF-8 Plain Text
    Title : Full
    Language : English
    Default : No
    Forced : No
    Text #16
    ID : 16
    Format : UTF-8
    Codec ID : S_TEXT/UTF8
    Codec ID/Info : UTF-8 Plain Text
    Title : SDH
    Language : English
    Default : No
    Forced : No
    Menu
    00:00:00.000 : en:00:00:00.000
    00:05:59.985 : en:00:05:59.985
    00:12:25.703 : en:00:12:25.703
    00:24:59.456 : en:00:24:59.456
    00:36:15.590 : en:00:36:15.590
    00:42:35.720 : en:00:42:35.720
    00:57:42.501 : en:00:57:42.501
    01:01:29.936 : en:01:01:29.936
    01:21:13.118 : en:01:21:13.118
    01:37:03.526 : en:01:37:03.526
    01:53:19.543 : en:01:53:19.543
    02:01:45.757 : en:02:01:45.757

    Размер скачиваемого торрента: 23.32 GB (25036153740 Bytes)

    Запрещённый приём / Sucker Punch (2011) BDRip 1080p от GORESEWAGE | Extended Cut торрент скачать бесплатно
    загрузка...
    Рейтинг →
     (голосов: 1, оценка 5/5, голосовать можно 1 раз )

    Другие торренты по теме:

  • Запрещённый приём / Sucker Punch (2011) BDRip 720p от GORESEWAGE | Extended Cut
  • Запрещённый приём / Sucker Punch (2011) BDRemux 1080p от GORESEWAGE | Extended Cut


    • Комментарии (0):

      Информация

      Информация

        Посетители, находящиеся в группе Гости, не могут оставлять комментарии в данной новости.

        ↓ Меню



        ↓ Опрос

        А Вы добавили сайт в закладки?
        Да
        Не


        Top 10 за месяц (Фильмы)