.
Авторизация | Регистрация
Хочешь лучшие торренты? Добавь свой email!
Добавить
» » Грейстоук: Легенда о Тарзане, повелителе обезьян / Greystoke: The Legend of Tarzan, Lord of the Apes (1984) BDRip от New-Team торрент скачать бесплатно




    Грейстоук: Легенда о Тарзане, повелителе обезьян / Greystoke: The Legend of Tarzan, Lord of the Apes (1984) BDRip от New-Team торрент скачать бесплатно

    Опубликовал: Админ | Дата: 27-02-2015, 11:10 | Просмотров: 352


    Снималось в: США
    Создали в: Edgar Rice Burroughs Inc., Warner Bros. Pictures, WEA Records
    Категория жанра: драма, мелодрама, приключения
    Создали в: 1984
    Время просмотра: 02:17:00

    Перевод текста: Профессиональный (полное дублирование) (Варус-Видео)
    Оригинальная аудиодорожка: нет
    Субтитры подготовлены: нет

    Главный режиссер: Хью Хадсон / Hugh Hudson

    Актеры:
    Кристофер Ламберт, Энди МакДауэлл, Ральф Ричардсон, Иэн Холм, Джеймс Фокс, Шерил Кэмпбелл, Иэн Чарлсон, Найджел Девенпорт, Николас Фэррел, Пол Джефри...

    Сюжет:
    Мальчик, выросший среди диких обезьян, возвращается к людям, чтобы заявить свои права на жизнь среди людей. Удивительная сага о Тарзане, созданная писателем Эдгаром Райсом Берроузом, — это волнующий рассказ о столкновении двух миров, дикого и цивилизованного...




    Исходник: BDRemux 1080p
    Тип релиза: BDRip
    Контейнер: AVI

    Информация о видео: 720x304 (2,35:1), 23,976 fps, XviD ~ 1320 kbps avg, 0.252 bit/pixel
    Информация о звуке: 48 kHz, Dolby Digital AC3 2.0, 192 kbps

    Раздача от:
    MediaInfo

    Общее
    Полное имя : Grejstok.Legenda.o.Tarzane.povelitele.obezyan.1984.BDRip._New-team_by_AVP_Studio.avi
    Формат : AVI
    Формат/Информация : Audio Video Interleave
    Размер файла : 1,46 Гбайт
    Продолжительность : 2 ч. 17 м.
    Общий поток : 1522 Кбит/сек
    Программа кодирования : VirtualDubModRus 1.5.10.2 (build 2542/release)
    Библиотека кодирования : VirtualDubMod build 2542/release

    Видео
    Идентификатор : 0
    Формат : MPEG-4 Visual
    Профиль формата : Advanced Simple@L5
    Параметр BVOP формата : 1
    Параметр QPel формата : Нет
    Параметр GMC формата : Без точки перехода
    Параметр матрицы формата : Выборочная
    Идентификатор кодека : XVID
    Идентификатор кодека/Подсказка : XviD
    Продолжительность : 2 ч. 17 м.
    Битрейт : 1320 Кбит/сек
    Ширина : 720 пикселей
    Высота : 304 пикселя
    Соотношение сторон : 2,35:1
    Частота кадров : 23,976 кадра/сек
    Цветовое пространство : YUV
    Субдискретизация насыщенности : 4:2:0
    Битовая глубина : 8 бит
    Тип развёртки : Прогрессивная
    Метод сжатия : С потерями
    Бит/(Пиксели*Кадры) : 0.252
    Размер потока : 1,26 Гбайт (87%)
    Библиотека кодирования : XviD 73

    Аудио
    Идентификатор : 1
    Формат : AC-3
    Формат/Информация : Audio Coding 3
    Расширение режима : CM (complete main)
    Параметр Endianness формата : Big
    Идентификатор кодека : 2000
    Продолжительность : 2 ч. 16 м.
    Вид битрейта : Постоянный
    Битрейт : 192 Кбит/сек
    Каналы : 2 канала
    Расположение каналов : Front: L R
    Частота : 48,0 КГц
    Битовая глубина : 16 бит
    Метод сжатия : С потерями
    Размер потока : 188 Мбайт (13%)
    Выравнивание : Разделение по промежуткам
    Продолжительность промежутка : 42 мс. (1,00 видеокадр)
    Время предзагрузки промежутка : 500 мс

    Скриншоты для ознакомления



    Интересные факты

    В кастинге на роль Тарзана участвовало 400 претендентов. Режиссёр выбрал молодого неизвестного французского актера Кристофа Ламбера, внешний вид которого сочетал в себе черты свободолюбивого дикаря Тарзана и врожденный аристократизм графа Грейстока. Хадсон поставил перед актером жесткие условия — за полгода накачать мышцы, научиться лазать по лианам и избавиться от французского акцента.
    Так как это была первая английская роль Кристофа Ламбера, он взял себе псевдоним для англоязычных стран — Кристофер Ламберт.
    Часть африканскиих сцен были сняты в национальном парке Koруп на юго-западе Камеруна среди пышных тропических лесов. Изящный двухструйный водопад Эком, перепад высот которого достигает 100 метров, присутствует во многих кадрах фильма, в том числе и в финале.
    Для показа роскошного убранства фамильного замка Грейсток были сняты следующие английские достопримечательности. Внешний вид особняка — замок Флорс Келсо в Шотландии. Сцены внутри — особняк Хатфилд в Хартфордшире.
    Джон Клейтон (имя Тарзан никогда не упоминается в фильме), открывает Грейсток экспозицию в лондонском музее естественной истории, в главном зале динозавров.
    В республике Мадагаскар в 1999 году была выпущена почтовая марка Кристоф Ламбер, где французский актёр запечатлен в образе Тарзана из фильма Грейсток: Легенда о Тарзане, повелителе обезьян.

    Залил: AVPStudio
    Размер скачиваемого торрента: 1.46 GB (1563871232 Bytes)

    Грейстоук: Легенда о Тарзане, повелителе обезьян / Greystoke: The Legend of Tarzan, Lord of the Apes (1984) BDRip от New-Team торрент скачать бесплатно
    загрузка...
    Рейтинг →
     (голосов: 1, оценка 5/5, голосовать можно 1 раз )

    Другие торренты по теме:



      Комментарии (0):

      Информация

      Информация

        Посетители, находящиеся в группе Гости, не могут оставлять комментарии в данной новости.

        ↓ Меню



        ↓ Опрос

        А Вы добавили сайт в закладки?
        Да
        Не


        Top 10 за месяц (Фильмы)