.
Авторизация | Регистрация
» » Несносный дед / Jackass Presents: Bad Grandpa (2013) BDRip 720p | Baibako | Unrated Cut торрент скачать бесплатно




    Несносный дед / Jackass Presents: Bad Grandpa (2013) BDRip 720p | Baibako | Unrated Cut торрент скачать бесплатно

    Опубликовал: Админ | Дата: 27-02-2015, 11:10 | Просмотров: 242



    Детально о кино
    Русское название: Несносный дед
    Русское название в мировом прокате: Jackass Presents: Bad Grandpa
    Создали в: 2013
    Категория жанра: Комедия
    Главный режиссер: Джефф Треймейн
    Актеры: Джонни Ноксвил, Джексон Николл, Грег Харрис, Джорджина Кэйтс, Камбер Хейлик, Джилл Килл, Мэдисон Дэвис, Джордж Фонан, Грэси Мерседес, Мэрилинн Эллейн

    Сюжет фильма:
    86-летний старикан по имени Ирвинг Зисман путешествует по Америке с необычным компаньоном — восьмилетним внуком Билли.
    • По дороге заводной дедушка знакомит впечатлительного Билли с людьми, местами и ситуациями, которые вряд ли укладываются в рамки привычных представлений о воспитании. Парочка столкнется со стриптизерами, разъяренными участниками помпезного детского конкурса красоты и их не менее злыми мамашами, скорбящими посетителями панихиды, завсегдатаями бара для байкеров и другими ничего не подозревающими гражданами США.



    Снималось в: США
    Киностудия: Dickhouse Productions, MTV Films
    Время просмотра: 01:42:13
    Перевод текста: Профессиональный (многоголосый закадровый) Baibako

    Файл
    Кодек для видео: H.264
    Качество фильма: BDRip 720p
    Информация о видео: 1280 x 720 (1.778) at 23.976 fps : 0.376 Bits/Pixel
    Информация о звуке:
    Аудио #1: AC3 384 Кбит/сек (6ch), 48,0 КГц, 16 бит Русский, MVO
    Аудио #2: DTS 1510 Кбит/сек (6ch), 48,0 КГц, 24 бит Английский
    Субтитры: Английский

    Семпл

    Релиз:

    MediaInfo:
    Формат : Matroska
    Версия формата : Version 2
    Размер файла : 7,29 Гбайт
    Продолжительность : 1 ч. 42 м.
    Общий поток : 10,2 Мбит/сек
    Название фильма : Jackass.Presents.Bad.Grandpa.2013.UNRATED.BluRay.720p.DTS.x264-CHD
    Дата кодирования : UTC 2014-01-23 22:33:26
    Программа кодирования : mkvmerge v2.9.9 (;Tutu;) built on Nov 25 2009 21:13:32
    Библиотека кодирования : libebml v0.7.9 libmatroska v0.8.1

    Видео
    Идентификатор : 1
    Формат : AVC
    Формат/Информация : Advanced Video Codec
    Профиль формата : High@L4.1
    Параметр CABAC формата : Да
    Параметр ReFrames формата : 9 кадров
    Идентификатор кодека : V_MPEG4/ISO/AVC
    Продолжительность : 1 ч. 42 м.
    Битрейт : 8309 Кбит/сек
    Ширина : 1280 пикселей
    Высота : 720 пикселей
    Соотношение сторон : 16:9
    Режим частоты кадров : Постоянный
    Частота кадров : 23,976 кадра/сек
    Цветовое пространство : YUV
    Субдискретизация насыщенности : 4:2:0
    Битовая глубина : 8 бит
    Тип развёртки : Прогрессивная
    Бит/(Пиксели*Кадры) : 0.376
    Размер потока : 5,79 Гбайт (79%)
    Заголовок : -=Release for NNM-CLUB.RU=-
    Библиотека кодирования : x264 core 138 r2356 a1d3d17
    Настройки программы : cabac=1 / ref=9 / deblock=1:-3:-3 / analyse=0x3:0x113 / me=umh / subme=10 / psy=1 / psy_rd=1.00:0.05 / mixed_ref=1 / me_range=32 / chroma_me=1 / trellis=2 / 8x8dct=1 / cqm=0 / deadzone=21,11 / fast_pskip=0 / chroma_qp_offset=-2 / threads=18 / lookahead_threads=1 / sliced_threads=0 / nr=0 / decimate=1 / interlaced=0 / bluray_compat=0 / constrained_intra=0 / bframes=6 / b_pyramid=2 / b_adapt=2 / b_bias=0 / direct=3 / weightb=1 / open_gop=0 / weightp=2 / keyint=250 / keyint_min=23 / scenecut=40 / intra_refresh=0 / rc=2pass / mbtree=0 / bitrate=8309 / ratetol=1.0 / qcomp=0.70 / qpmin=0 / qpmax=69 / qpstep=4 / cplxblur=20.0 / qblur=0.5 / ip_ratio=1.40 / pb_ratio=1.30 / aq=2:0.90
    Язык : English
    Default : Нет
    Forced : Нет

    Аудио #1
    Идентификатор : 2
    Формат : AC-3
    Формат/Информация : Audio Coding 3
    Расширение режима : CM (complete main)
    Параметр Endianness формата : Big
    Идентификатор кодека : A_AC3
    Продолжительность : 1 ч. 42 м.
    Вид битрейта : Постоянный
    Битрейт : 384 Кбит/сек
    Каналы : 6 каналов
    Расположение каналов : Front: L C R, Side: L R, LFE
    Частота : 48,0 КГц
    Битовая глубина : 16 бит
    Метод сжатия : С потерями
    Размер потока : 281 Мбайт (4%)
    Заголовок : AC3.384Kbps (6ch) Russian (MVO)
    Язык : Russian
    Default : Да
    Forced : Нет

    Аудио #2
    Идентификатор : 3
    Формат : DTS
    Формат/Информация : Digital Theater Systems
    Режим : 16
    Параметр Endianness формата : Big
    Идентификатор кодека : A_DTS
    Продолжительность : 1 ч. 42 м.
    Вид битрейта : Постоянный
    Битрейт : 1509 Кбит/сек
    Каналы : 6 каналов
    Расположение каналов : Front: L C R, Side: L R, LFE
    Частота : 48,0 КГц
    Битовая глубина : 24 бит
    Метод сжатия : С потерями
    Задержка видео : 11 мс.
    Размер потока : 1,08 Гбайт (15%)
    Заголовок : English DTS 5.1 1509Kbps
    Язык : English
    Default : Нет
    Forced : Нет

    Текст #1
    Идентификатор : 4
    Формат : UTF-8
    Идентификатор кодека : S_TEXT/UTF8
    Идентификатор кодека/Информация : UTF-8 Plain Text
    Заголовок : English (Full)
    Язык : English
    Default : Нет
    Forced : Нет

    Текст #2
    Идентификатор : 5
    Формат : UTF-8
    Идентификатор кодека : S_TEXT/UTF8
    Идентификатор кодека/Информация : UTF-8 Plain Text
    Заголовок : English (SDH)
    Язык : English
    Default : Нет
    Forced : Нет

    Текст #3
    Идентификатор : 6
    Формат : UTF-8
    Идентификатор кодека : S_TEXT/UTF8
    Идентификатор кодека/Информация : UTF-8 Plain Text
    Заголовок : English (SDH-Colored)
    Язык : English
    Default : Нет
    Forced : Нет

    Меню
    00:00:00.000 : en:00:00:00.000
    00:07:18.772 : en:00:07:18.772
    00:18:03.082 : en:00:18:03.082
    00:25:39.413 : en:00:25:39.413
    00:32:17.352 : en:00:32:17.352
    00:42:02.562 : en:00:42:02.562
    00:48:59.395 : en:00:48:59.395
    00:57:16.308 : en:00:57:16.308
    01:04:32.911 : en:01:04:32.911
    01:11:59.774 : en:01:11:59.774
    01:18:44.303 : en:01:18:44.303
    01:26:40.862 : en:01:26:40.862
    01:33:32.231 : en:01:33:32.231
    Скриншоты для ознакомления

    Размер скачиваемого торрента: 7.29 GB (7822902209 Bytes)

    Несносный дед / Jackass Presents: Bad Grandpa (2013) BDRip 720p | Baibako | Unrated Cut торрент скачать бесплатно
    загрузка...
    Рейтинг →
     (голосов: 1, оценка 5/5, голосовать можно 1 раз )

    Другие торренты по теме:

  • Чудаки: Несносный дед / Jackass Presents: Bad Grandpa (2013) CAMRip от dReaM скачать через торрент бесплатно
  • Несносный дед / Jackass Presents: Bad Grandpa (2013) TS торрент скачать бесплатно
  • Несносный дед / Jackass Presents: Bad Grandpa (2013) WEB-DLRip | L1 скачать через торрент бесплатно
  • Несносный дед / Jackass Presents: Bad Grandpa (2013) BDRip 1080p | Unrated Edition | BaibaKo торрент скачать бесплатно
  • Несносный дед / Jackass Presents: Bad Grandpa (2013) HDRip | Baibako | Unrated Cut торрент скачать бесплатно
  • Несносный дед / Jackass Presents: Bad Grandpa (2013) HDRip-AVC | Baibako | Unrated Cut скачать через торрент бесплатно
  • Несносный дед / Jackass Presents: Bad Grandpa (2013) BDRip 720p от Leonardo and Scarabey | L1 | Theatrical Cut торрент скачать бесплатно
  • Несносный дед / Jackass Presents: Bad Grandpa (2013) HDRip от Scarabey | Baibako | Расширенная версия скачать через торрент бесплатно


    • Комментарии (0):

      Информация

      Информация

        Посетители, находящиеся в группе Гости, не могут оставлять комментарии в данной новости.

        ↓ Меню



        ↓ Опрос

        А Вы добавили сайт в закладки?
        Да
        Не


        Top 10 за неделю (Фильмы)