.
Авторизация | Регистрация
» » Советник / The Counselor (2013) BDRip 1080p от GORESEWAGE | Extended Cut | Лицензия торрент скачать бесплатно




    Советник / The Counselor (2013) BDRip 1080p от GORESEWAGE | Extended Cut | Лицензия торрент скачать бесплатно

    Опубликовал: Админ | Дата: 27-02-2015, 11:10 | Просмотров: 338



    Русское название: Советник
    Русское название в мировом прокате: The Counselor
    Создали в: 2013
    Снималось в: США, Великобритания
    Категория жанра: триллер, драма, криминал
    Время просмотра: 02:17:56
    Перевод текста 1: Профессиональный (дублированный) Rus
    Перевод текста 2: Профессиональный (дублированный) Ukr
    Оригинальная аудиодорожка: Английская
    Субтитры: Русские (Forced, Full), украинские, (Full), латышские (Full), литовские (Full), эстонские (Full), английские (Forced, Full), датские (Full), финские (Full), греческие (Full), итальянские (Full), норвежские (Full), шведские (Full)
    Киностудия: Chockstone Pictures, Kanzaman, Nick Wechsler Productions

    Главный режиссёр: Ридли Скотт / Ridley Scott

    Актеры: Майкл Фассбендер, Пенелопа Крус, Кэмерон Диаз, Хавьер Бардем, Брэд Питт, Бруно Ганц, Рози Перес, Сэм Спруэлл, Тоби Кеббелл, Эмма Ригби и др.

    Сюжет: Успешный адвокат, стоящий практически на вершине успеха и на пороге собственной свадьбы, из любопытства и, конечно, ради денег соглашается на предложение своего давнего знакомого, имеющего тесные связи с преступным миром, перевезти из Мексики в США партию кокаина стоимостью 20 млн. долл.



    Семпл

    Качество фильма: BDRip 1080p (HDMaNiAcS)
    Контейнер: MKV
    Информация о видео кодек: MPEG-4 AVC Video
    Информация о звуке кодек: DTS / AC3
    Информация о видео: MPEG-4 AVC Video / 14500 kbps / 1920x800p / 23,976 fps / 2.40:1 / High Profile 4.1
    Информация о звуке 1: Russian / DTS / 5.1 / 48 kHz / 768 kbps / 24-bit / Dub Rus
    Информация о звуке 2: Ukrainian / AC3 / 5.1 / 48 kHz / 448 kbps / 16-bit / Dub Ukr
    Информация о звуке 3: English / DTS / 5.1 / 48 kHz / 1536 kbps / 24-bit / Original
    Навигация по главам: да

    * Расширенные места переведены форсированными субтитрами.

    Скриншоты для ознакомления

    MediaInfo
    C:/GORESEWAGE/The Counselor 2013 Unrated Extended Cut BDRip 1080p GORESEWAGE.mkv
    General
    Unique ID : 197572272459931015260305589087618174861 (0x94A3091B30636AC994A734A67EA78F8D)
    Complete name : C:/GORESEWAGE/The Counselor 2013 Unrated Extended Cut BDRip 1080p GORESEWAGE.mkv
    Format : Matroska
    Format version : Version 4 / Version 2
    File size : 16.6 GiB
    Duration : 2h 17mn
    Overall bit rate : 17.2 Mbps
    Movie name : The Counselor 2013 Unrated Extended Cut BDRip 1080p GORESEWAGE
    Encoded date : UTC 2014-02-03 00:50:58
    Writing application : mkvmerge v6.7.0 (;Back to the Ground;) 64bit built on Jan 8 2014 15:10:52
    Writing library : libebml v1.3.0 libmatroska v1.4.1
    Attachment : Yes
    Video #1
    ID : 1
    Format : AVC
    Format/Info : Advanced Video Codec
    Format profile : High@L4.1
    Format settings, CABAC : Yes
    Format settings, ReFrames : 5 frames
    Codec ID : V_MPEG4/ISO/AVC
    Duration : 2h 17mn
    Bit rate : 14.5 Mbps
    Width : 1 920 pixels
    Height : 800 pixels
    Display aspect ratio : 2.40:1
    Frame rate mode : Constant
    Frame rate : 23.976 fps
    Color space : YUV
    Chroma subsampling : 4:2:0
    Bit depth : 8 bits
    Scan type : Progressive
    Bits/(Pixel*Frame) : 0.394
    Stream size : 13.6 GiB (82%)
    Title : The Counselor 2013 Unrated Extended Cut BDRip 1080p GORESEWAGE
    Writing library : x264 core 138 r2358kMod 9e941d1
    Encoding settings : cabac=1 / ref=5 / deblock=1:-3:-3 / analyse=0x3:0x113 / me=tesa / subme=11 / psy=1 / fade_compensate=0.00 / psy_rd=1.05:0.00 / mixed_ref=1 / me_range=32 / chroma_me=1 / trellis=2 / 8x8dct=1 / cqm=0 / deadzone=21,11 / fast_pskip=0 / chroma_qp_offset=-2 / threads=18 / lookahead_threads=3 / sliced_threads=0 / nr=0 / decimate=0 / interlaced=0 / bluray_compat=0 / constrained_intra=0 / bframes=8 / b_pyramid=2 / b_adapt=2 / b_bias=0 / direct=3 / weightb=1 / open_gop=0 / weightp=2 / keyint=250 / keyint_min=23 / scenecut=40 / intra_refresh=0 / rc_lookahead=40 / rc=2pass / mbtree=0 / bitrate=14500 / ratetol=1.0 / qcomp=0.60 / qpmin=10 / qpmax=69 / qpstep=4 / cplxblur=20.0 / qblur=0.5 / vbv_maxrate=40000 / vbv_bufsize=30000 / nal_hrd=none / ip_ratio=1.35 / pb_ratio=1.10 / aq=3:0.80
    Language : English
    Default : Yes
    Forced : No
    Audio #2
    ID : 2
    Format : DTS
    Format/Info : Digital Theater Systems
    Mode : 16
    Format settings, Endianness : Big
    Codec ID : A_DTS
    Duration : 2h 17mn
    Bit rate mode : Constant
    Bit rate : 755 Kbps
    Channel count : 6 channels
    Channel positions : Front: L C R, Side: L R, LFE
    Sampling rate : 48.0 KHz
    Bit depth : 24 bits
    Compression mode : Lossy
    Stream size : 744 MiB (4%)
    Title : Dub Rus
    Language : Russian
    Default : Yes
    Forced : No
    Audio #3
    ID : 3
    Format : AC-3
    Format/Info : Audio Coding 3
    Mode extension : CM (complete main)
    Format settings, Endianness : Big
    Codec ID : A_AC3
    Duration : 2h 17mn
    Bit rate mode : Constant
    Bit rate : 448 Kbps
    Channel count : 6 channels
    Channel positions : Front: L C R, Side: L R, LFE
    Sampling rate : 48.0 KHz
    Bit depth : 16 bits
    Compression mode : Lossy
    Stream size : 442 MiB (3%)
    Title : Dub Ukr
    Language : Ukrainian
    Default : No
    Forced : No
    Audio #4
    ID : 4
    Format : DTS
    Format/Info : Digital Theater Systems
    Mode : 16
    Format settings, Endianness : Big
    Codec ID : A_DTS
    Duration : 2h 17mn
    Bit rate mode : Constant
    Bit rate : 1 509 Kbps
    Channel count : 6 channels
    Channel positions : Front: L C R, Side: L R, LFE
    Sampling rate : 48.0 KHz
    Bit depth : 24 bits
    Compression mode : Lossy
    Stream size : 1.45 GiB (9%)
    Title : Original
    Language : English
    Default : No
    Forced : No
    Text #5
    ID : 5
    Format : UTF-8
    Codec ID : S_TEXT/UTF8
    Codec ID/Info : UTF-8 Plain Text
    Title : Forced
    Language : Russian
    Default : Yes
    Forced : No
    Text #6
    ID : 6
    Format : UTF-8
    Codec ID : S_TEXT/UTF8
    Codec ID/Info : UTF-8 Plain Text
    Title : Full
    Language : Russian
    Default : No
    Forced : No
    Text #7
    ID : 7
    Format : UTF-8
    Codec ID : S_TEXT/UTF8
    Codec ID/Info : UTF-8 Plain Text
    Title : Full
    Language : Ukrainian
    Default : No
    Forced : No
    Text #8
    ID : 8
    Format : UTF-8
    Codec ID : S_TEXT/UTF8
    Codec ID/Info : UTF-8 Plain Text
    Title : Full
    Language : Latvian
    Default : No
    Forced : No
    Text #9
    ID : 9
    Format : UTF-8
    Codec ID : S_TEXT/UTF8
    Codec ID/Info : UTF-8 Plain Text
    Title : Full
    Language : Lithuanian
    Default : No
    Forced : No
    Text #10
    ID : 10
    Format : UTF-8
    Codec ID : S_TEXT/UTF8
    Codec ID/Info : UTF-8 Plain Text
    Title : Full
    Language : Estonian
    Default : No
    Forced : No
    Text #11
    ID : 11
    Format : UTF-8
    Codec ID : S_TEXT/UTF8
    Codec ID/Info : UTF-8 Plain Text
    Title : Forced
    Language : English
    Default : No
    Forced : No
    Text #12
    ID : 12
    Format : UTF-8
    Codec ID : S_TEXT/UTF8
    Codec ID/Info : UTF-8 Plain Text
    Title : Full
    Language : English
    Default : No
    Forced : No
    Text #13
    ID : 13
    Format : UTF-8
    Codec ID : S_TEXT/UTF8
    Codec ID/Info : UTF-8 Plain Text
    Title : Full
    Language : Danish
    Default : No
    Forced : No
    Text #14
    ID : 14
    Format : UTF-8
    Codec ID : S_TEXT/UTF8
    Codec ID/Info : UTF-8 Plain Text
    Title : Full
    Language : Finnish
    Default : No
    Forced : No
    Text #15
    ID : 15
    Format : UTF-8
    Codec ID : S_TEXT/UTF8
    Codec ID/Info : UTF-8 Plain Text
    Title : Full
    Language : Greek
    Default : No
    Forced : No
    Text #16
    ID : 16
    Format : UTF-8
    Codec ID : S_TEXT/UTF8
    Codec ID/Info : UTF-8 Plain Text
    Title : Full
    Language : Italian
    Default : No
    Forced : No
    Text #17
    ID : 17
    Format : UTF-8
    Codec ID : S_TEXT/UTF8
    Codec ID/Info : UTF-8 Plain Text
    Title : Full
    Language : Norwegian
    Default : No
    Forced : No
    Text #18
    ID : 18
    Format : UTF-8
    Codec ID : S_TEXT/UTF8
    Codec ID/Info : UTF-8 Plain Text
    Title : Full
    Language : Swedish
    Default : No
    Forced : No
    Menu
    00:00:00.000 : en:00:00:00.000
    00:06:38.023 : en:00:06:38.023
    00:09:47.086 : en:00:09:47.086
    00:12:12.565 : en:00:12:12.565
    00:19:50.606 : en:00:19:50.606
    00:27:59.678 : en:00:27:59.678
    00:31:31.973 : en:00:31:31.973
    00:34:35.240 : en:00:34:35.240
    00:37:13.856 : en:00:37:13.856
    00:46:31.831 : en:00:46:31.831
    00:50:45.876 : en:00:50:45.876
    00:56:54.494 : en:00:56:54.494
    00:58:13.448 : en:00:58:13.448
    00:59:55.258 : en:00:59:55.258
    01:02:37.629 : en:01:02:37.629
    01:04:40.710 : en:01:04:40.710
    01:10:51.372 : en:01:10:51.372
    01:15:33.487 : en:01:15:33.487
    01:17:44.034 : en:01:17:44.034
    01:19:53.705 : en:01:19:53.705
    01:25:41.303 : en:01:25:41.303
    01:30:10.113 : en:01:30:10.113
    01:34:25.785 : en:01:34:25.785
    01:38:29.779 : en:01:38:29.779
    01:41:34.839 : en:01:41:34.839
    01:44:25.843 : en:01:44:25.843
    01:46:19.373 : en:01:46:19.373
    01:48:58.365 : en:01:48:58.365
    01:51:45.907 : en:01:51:45.907
    01:58:04.452 : en:01:58:04.452
    01:59:36.252 : en:01:59:36.252
    02:03:57.138 : en:02:03:57.138
    02:05:26.310 : en:02:05:26.310
    02:08:22.778 : en:02:08:22.778
    02:10:27.945 : en:02:10:27.945
    02:13:53.650 : en:02:13:53.650

    Размер скачиваемого торрента: 16.58 GB (17804191472 Bytes)

    Советник / The Counselor (2013) BDRip 1080p от GORESEWAGE | Extended Cut | Лицензия торрент скачать бесплатно
    загрузка...
    Рейтинг →
     (голосов: 1, оценка 5/5, голосовать можно 1 раз )

    Другие торренты по теме:

  • Советник / The Counselor (2013) HD 1080p | Тизер торрент скачать бесплатно
  • Кормак МакКарти / Cormac McCarthy - Советник / The Counselor (2013) DOC торрент скачать бесплатно
  • OST. Энри Лолашвили - Статский советник (2009) MP3 торрент скачать бесплатно
  • OST. Энри Лолашвили - Статский советник (2009) APE торрент скачать бесплатно
  • Советник (2013) скачать через торрент бесплатно
  • Советник / The Counselor (2013) CAMRip от INTERCINEMA торрент скачать бесплатно
  • Советник / The Counselor (2013) WEB-DL 720p | Звук с CAMRip скачать через торрент бесплатно
  • Советник / The Counselor (2013) WEB-DLRip | Звук с CAMRip скачать через торрент бесплатно


    • Комментарии (0):

      Информация

      Информация

        Посетители, находящиеся в группе Гости, не могут оставлять комментарии в данной новости.

        ↓ Меню



        ↓ Опрос

        А Вы добавили сайт в закладки?
        Да
        Не


        Top 10 за неделю (Фильмы)