.
Авторизация | Регистрация
Хочешь лучшие торренты? Добавь свой email!
Добавить
» » Шов / Stitch (2014) SATRip от MediaClub | P2 скачать через торрент бесплатно




    Шов / Stitch (2014) SATRip от MediaClub | P2 скачать через торрент бесплатно

    Опубликовал: Админ | Дата: 27-02-2015, 11:10 | Просмотров: 288



    Детально о кино
    Русское название: Шов
    Русское название в мировом прокате: Stitch
    Создали в: 2014
    Категория жанра: Триллер
    Главный режиссер: Аджай
    Актеры: Эдвард Ферлонг, Шона Уолрод, Дайан Салинджер, Лоуренс Мэйсон, Ширли Бренер, Дуглас Тейт, Тиффани Мартин

    Сюжет фильма:
    История о скорбящих родителях Марсдене и Серафине, которые пытаются пережить смерть своей маленькой дочери. На пике отчаяния они обращаются к своим друзьям за советом. Их друзья, действуя из лучших побуждений, вывозят их далеко в пустыню, чтобы там они, пройдя некий ритуал, смогли избавиться от своих переживаний. Но все пошло наперекосяк…



    Снималось в: США
    Киностудия: Thunderbolt Entertainment, Wolf Pack Film Works
    Время просмотра: 01:31:03
    Перевод текста: Профессиональный двухголосый (НТВ )

    Файл
    Кодек для видео: XviD
    Качество фильма: SATRip
    Информация о видео: 1900 Кбит/с, 720x400, 25.000 кадр/с
    Информация о звуке: Русский (АС3, 2 ch, 192 Кбит/с)

    Семпл

    Скриншоты для ознакомления

    MI
    Общее
    Полное имя : Shov.2014.SATRip.MediaClub.avi
    Формат : AVI
    Формат/Информация : Audio Video Interleave
    Размер файла : 1,34 Гбайт
    Продолжительность : 1 ч. 31 м.
    Общий поток : 2101 Кбит/сек
    Название фильма : MediaClub
    Программа кодирования : VirtualDubMod 1.5.10.2 (build 2540/release)
    Библиотека кодирования : VirtualDubMod build 2540/release

    Видео
    Идентификатор : 0
    Формат : MPEG-4 Visual
    Профиль формата : Advanced Simple@L5
    Параметр BVOP формата : 2
    Параметр QPel формата : Нет
    Параметр GMC формата : Без точки перехода
    Параметр матрицы формата : Default (MPEG)
    Идентификатор кодека : XVID
    Идентификатор кодека/Подсказка : XviD
    Продолжительность : 1 ч. 31 м.
    Битрейт : 1900 Кбит/сек
    Ширина : 720 пикселей
    Высота : 400 пикселей
    Соотношение сторон : 16:9
    Частота кадров : 25,000 кадров/сек
    Цветовое пространство : YUV
    Субдискретизация насыщенности : 4:2:0
    Битовая глубина : 8 бит
    Тип развёртки : Прогрессивная
    Метод сжатия : С потерями
    Бит/(Пиксели*Кадры) : 0.264
    Размер потока : 1,21 Гбайт (90%)
    Библиотека кодирования : XviD 65

    Аудио
    Идентификатор : 1
    Формат : AC-3
    Формат/Информация : Audio Coding 3
    Расширение режима : CM (complete main)
    Параметр Endianness формата : Big
    Идентификатор кодека : 2000
    Продолжительность : 1 ч. 31 м.
    Вид битрейта : Постоянный
    Битрейт : 192 Кбит/сек
    Каналы : 2 канала
    Расположение каналов : Front: L R
    Частота : 48,0 КГц
    Битовая глубина : 16 бит
    Метод сжатия : С потерями
    Размер потока : 125 Мбайт (9%)
    Выравнивание : Разделение по промежуткам
    Продолжительность промежутка : 40 мс. (1,00 видеокадр)
    Время предзагрузки промежутка : 500 мс.


    Релиз подготовил:
    Залил: poja
    Размер скачиваемого торрента: 1.34 GB (1435262976 Bytes)

    Шов / Stitch (2014) SATRip от MediaClub | P2 скачать через торрент бесплатно
    загрузка...
    Рейтинг →
     (голосов: 1, оценка 4/5, голосовать можно 1 раз )

    Другие торренты по теме:

  • Шов / Stitch (2014) SATRip | P2
  • Шов / Stitch (2014) DVB от MediaClub | P2
  • Шов / Stitch (2014) WEB-DL 720p | НТВ
  • Шов / Stitch (2014) WEB-DLRip | НТВ
  • Шов / Stitch (2014) BDRip 720p от CINEMANIA | P2 скачать через торрент бесплатно
  • Шов / Stitch (2014) BDRip 1080p от CINEMANIA | L2 скачать через торрент бесплатно


    • Комментарии (0):

      Информация

      Информация

        Посетители, находящиеся в группе Гости, не могут оставлять комментарии в данной новости.

        ↓ Меню



        ↓ Опрос

        А Вы добавили сайт в закладки?
        Да
        Не


        Top 10 за месяц (Фильмы)