.
Авторизация | Регистрация
» » Иллюзия обмана / Now You See Me (2013) BDRip 1080p от GORESEWAGE | Extended Cut скачать через торрент бесплатно




    Иллюзия обмана / Now You See Me (2013) BDRip 1080p от GORESEWAGE | Extended Cut скачать через торрент бесплатно

    Опубликовал: Админ | Дата: 27-02-2015, 11:10 | Просмотров: 265



    Русское название: Иллюзия обмана
    Русское название в мировом прокате: Now You See Me
    Создали в: 2013
    Снималось в: Франция, США
    Категория жанра: триллер, криминал, детектив
    Время просмотра: 02:04:48
    Перевод текста 1: Профессиональный (дублированный) AVO Ю. Сербин (на расширенные сцены)
    Перевод текста 2: Авторский (одноголосый закадровый) Л. Володарский
    Перевод текста 3: Авторский (одноголосый закадровый) А. Гаврилов
    Перевод текста 4: Авторский (одноголосый закадровый) Ю. Сербинн
    Оригинальная аудиодорожка: Английская
    Субтитры: Русские (Full Notabenoid), английские (Full, SDH)
    Киностудия: Summit Entertainment, K/O Paper Products, SOIXAN7E QUIN5E

    Главный режиссёр: Луи Летерье / Louis Leterrier

    Актеры: Марк Руффало, Джесси Айзенберг, Вуди Харрельсон, Айла Фишер, Дэйв Франко, Мелани Лоран, Морган Фриман, Майкл Кейн, Майкл Келли, Коммон и др.

    Сюжет: Команда лучших иллюзионистов мира проворачивает дерзкие ограбления прямо во время своих шоу, играя в кошки-мышки с агентами ФБР.



    Sample

    Качество фильма: BDRip 1080p (PriMeHD)
    Контейнер: MKV
    Информация о видео кодек: MPEG-4 AVC Video
    Информация о звуке кодек: DTS / AC3
    Информация о видео: MPEG-4 AVC Video / 13000 kbps / 1920x800p / 23,976 fps / 2.40:1 / High Profile 4.1
    Информация о звуке 1: Russian / AC3 / 5.1 / 48 kHz / 448 kbps / 16-bit / Dub AVO Ю. Сербин
    Информация о звуке 2: Russian / DTS / 5.1 / 48 kHz / 1536 kbps / 24-bit / AVO Л. Володарский
    Информация о звуке 3: Russian / DTS / 5.1 / 48 kHz / 1536 kbps / 24-bit / AVO А. Гаврилов
    Информация о звуке 4: Russian / DTS / 5.1 / 48 kHz / 1536 kbps / 24-bit / AVO Ю. Сербин
    Информация о звуке 5: English / DTS / 5.1 / 48 kHz / 1536 kbps / 24-bit / Original
    Информация о звуке 6: English / AC3 / 2.0 / 48 kHz / 224 kbps / 16-bit / Commentary #1
    Информация о звуке 7: English / AC3 / 2.0 / 48 kHz / 224 kbps / 16-bit / Commentary #2
    Навигация по главам: да

    Дополнительная информация

    * Перевод Леонида Володарского доступен благодаря пользователям форума E180.
    * Перевод Андрея Гаврилова доступен благодаря пользователям форума HDTracker: -Джосс-, Brown15, chefchef, Chistobaev, denis_mgn_1987, dunhill200, edsz, feldeger, fly32, foxlight, GaryH, Guyver, Hattori Hanzo, karantin66, kinobbk, kovadim, KpucTo161, Letyoha3, Loki, milocerd0v, nimph, Pain_70, rydanes, SavineX, shitman82, Skibichok, therox, v111o, vadamk, Vimann, Xerman13, YoGuRt-82, zeleniydzhan, ZeRoNe, Диммон, _MyxAmoP_ , lexal, hulahup, carter64, Tio, Role, Tehnar, Rolly Tyler, overdose, LAVR, Jiraya87, audiolubitel.
    * Перевод Юрия Сербина доступен благодаря пользователям форума HDClub: Dervish, GKillah, Loki1982, Luka69, tambov68, denismgn1987, ultrajeka, RAUL, u6868, Andresoff, bm9701, а так же пользователям форума E180.

    Скриншоты для ознакомления

    MediaInfo
    C:/GORESEWAGE/Now You See Me 2013 Extended Cut BDRip 1080p GORESEWAGE.mkv
    General
    Unique ID : 254715190849665388111597284834023507157 (0xBFA05C806F7390C384E9DD1D798F04D5)
    Complete name : C:/GORESEWAGE/Now You See Me 2013 Extended Cut BDRip 1080p GORESEWAGE.mkv
    Format : Matroska
    Format version : Version 4 / Version 2
    File size : 17.4 GiB
    Duration : 2h 4mn
    Overall bit rate : 19.9 Mbps
    Movie name : Now You See Me 2013 Extended Cut BDRip 1080p GORESEWAGE
    Encoded date : UTC 2014-02-04 15:45:08
    Writing application : mkvmerge v6.7.0 (;Back to the Ground;) 64bit built on Jan 8 2014 15:10:52
    Writing library : libebml v1.3.0 libmatroska v1.4.1
    Attachment : Yes
    Video #1
    ID : 1
    Format : AVC
    Format/Info : Advanced Video Codec
    Format profile : High@L4.1
    Format settings, CABAC : Yes
    Format settings, ReFrames : 5 frames
    Codec ID : V_MPEG4/ISO/AVC
    Duration : 2h 4mn
    Bit rate : 13.0 Mbps
    Width : 1 920 pixels
    Height : 800 pixels
    Display aspect ratio : 2.40:1
    Frame rate mode : Constant
    Frame rate : 23.976 fps
    Color space : YUV
    Chroma subsampling : 4:2:0
    Bit depth : 8 bits
    Scan type : Progressive
    Bits/(Pixel*Frame) : 0.353
    Stream size : 11.0 GiB (63%)
    Title : Now You See Me 2013 Extended Cut BDRip 1080p GORESEWAGE
    Writing library : x264 core 135 r2345 f0c1c53
    Encoding settings : cabac=1 / ref=5 / deblock=1:-2:-2 / analyse=0x3:0x113 / me=umh / subme=10 / psy=1 / psy_rd=1.00:0.10 / mixed_ref=1 / me_range=48 / chroma_me=1 / trellis=2 / 8x8dct=1 / cqm=0 / deadzone=21,11 / fast_pskip=1 / chroma_qp_offset=-2 / threads=12 / lookahead_threads=2 / sliced_threads=0 / nr=0 / decimate=1 / interlaced=0 / bluray_compat=0 / constrained_intra=0 / bframes=7 / b_pyramid=2 / b_adapt=2 / b_bias=0 / direct=1 / weightb=1 / open_gop=0 / weightp=2 / keyint=240 / keyint_min=23 / scenecut=40 / intra_refresh=0 / rc_lookahead=200 / rc=2pass / mbtree=1 / bitrate=13000 / ratetol=1.0 / qcomp=0.70 / qpmin=0 / qpmax=69 / qpstep=4 / cplxblur=20.0 / qblur=0.5 / vbv_maxrate=62500 / vbv_bufsize=78125 / nal_hrd=none / ip_ratio=1.40 / aq=1:1.00
    Language : English
    Default : Yes
    Forced : No
    Audio #2
    ID : 2
    Format : AC-3
    Format/Info : Audio Coding 3
    Mode extension : CM (complete main)
    Format settings, Endianness : Big
    Codec ID : A_AC3
    Duration : 2h 4mn
    Bit rate mode : Constant
    Bit rate : 448 Kbps
    Channel count : 6 channels
    Channel positions : Front: L C R, Side: L R, LFE
    Sampling rate : 48.0 KHz
    Bit depth : 16 bits
    Compression mode : Lossy
    Stream size : 400 MiB (2%)
    Title : Dub AVO Ю. Сербин
    Language : Russian
    Default : Yes
    Forced : No
    Audio #3
    ID : 3
    Format : DTS
    Format/Info : Digital Theater Systems
    Mode : 16
    Format settings, Endianness : Big
    Codec ID : A_DTS
    Duration : 2h 4mn
    Bit rate mode : Constant
    Bit rate : 1 509 Kbps
    Channel count : 6 channels
    Channel positions : Front: L C R, Side: L R, LFE
    Sampling rate : 48.0 KHz
    Bit depth : 24 bits
    Compression mode : Lossy
    Stream size : 1.32 GiB (8%)
    Title : AVO Л. Володарский
    Language : Russian
    Default : No
    Forced : No
    Audio #4
    ID : 4
    Format : DTS
    Format/Info : Digital Theater Systems
    Mode : 16
    Format settings, Endianness : Big
    Codec ID : A_DTS
    Duration : 2h 4mn
    Bit rate mode : Constant
    Bit rate : 1 509 Kbps
    Channel count : 6 channels
    Channel positions : Front: L C R, Side: L R, LFE
    Sampling rate : 48.0 KHz
    Bit depth : 24 bits
    Compression mode : Lossy
    Stream size : 1.32 GiB (8%)
    Title : AVO А. Гаврилов
    Language : Russian
    Default : No
    Forced : No
    Audio #5
    ID : 5
    Format : DTS
    Format/Info : Digital Theater Systems
    Mode : 16
    Format settings, Endianness : Big
    Codec ID : A_DTS
    Duration : 2h 4mn
    Bit rate mode : Constant
    Bit rate : 1 509 Kbps
    Channel count : 6 channels
    Channel positions : Front: L C R, Side: L R, LFE
    Sampling rate : 48.0 KHz
    Bit depth : 24 bits
    Compression mode : Lossy
    Stream size : 1.32 GiB (8%)
    Title : AVO Ю. Сербин
    Language : Russian
    Default : No
    Forced : No
    Audio #6
    ID : 6
    Format : DTS
    Format/Info : Digital Theater Systems
    Mode : 16
    Format settings, Endianness : Big
    Codec ID : A_DTS
    Duration : 2h 4mn
    Bit rate mode : Constant
    Bit rate : 1 509 Kbps
    Channel count : 6 channels
    Channel positions : Front: L C R, Side: L R, LFE
    Sampling rate : 48.0 KHz
    Bit depth : 24 bits
    Compression mode : Lossy
    Stream size : 1.32 GiB (8%)
    Title : Original
    Language : English
    Default : No
    Forced : No
    Audio #7
    ID : 7
    Format : AC-3
    Format/Info : Audio Coding 3
    Format profile : Dolby Digital
    Mode extension : CM (complete main)
    Format settings, Endianness : Big
    Codec ID : A_AC3
    Duration : 2h 4mn
    Bit rate mode : Constant
    Bit rate : 224 Kbps
    Channel count : 2 channels
    Channel positions : Front: L R
    Sampling rate : 48.0 KHz
    Bit depth : 16 bits
    Compression mode : Lossy
    Stream size : 200 MiB (1%)
    Title : Commentary #1
    Language : English
    Default : No
    Forced : No
    Audio #8
    ID : 8
    Format : AC-3
    Format/Info : Audio Coding 3
    Format profile : Dolby Digital
    Mode extension : CM (complete main)
    Format settings, Endianness : Big
    Codec ID : A_AC3
    Duration : 2h 4mn
    Bit rate mode : Constant
    Bit rate : 224 Kbps
    Channel count : 2 channels
    Channel positions : Front: L R
    Sampling rate : 48.0 KHz
    Bit depth : 16 bits
    Compression mode : Lossy
    Stream size : 200 MiB (1%)
    Title : Commentary #2
    Language : English
    Default : No
    Forced : No
    Text #9
    ID : 9
    Format : UTF-8
    Codec ID : S_TEXT/UTF8
    Codec ID/Info : UTF-8 Plain Text
    Title : Full Notabenoid
    Language : Russian
    Default : No
    Forced : No
    Text #10
    ID : 10
    Format : UTF-8
    Codec ID : S_TEXT/UTF8
    Codec ID/Info : UTF-8 Plain Text
    Title : Full
    Language : English
    Default : No
    Forced : No
    Text #11
    ID : 11
    Format : UTF-8
    Codec ID : S_TEXT/UTF8
    Codec ID/Info : UTF-8 Plain Text
    Title : Full SDH
    Language : English
    Default : No
    Forced : No
    Menu
    00:00:00.000 : en:00:00:00.000
    00:08:26.548 : en:00:08:26.548
    00:14:41.923 : en:00:14:41.923
    00:21:25.868 : en:00:21:25.868
    00:32:02.003 : en:00:32:02.003
    00:39:29.158 : en:00:39:29.158
    00:47:07.199 : en:00:47:07.199
    00:56:43.441 : en:00:56:43.441
    01:04:35.371 : en:01:04:35.371
    01:10:23.135 : en:01:10:23.135
    01:20:04.549 : en:01:20:04.549
    01:29:01.002 : en:01:29:01.002
    01:35:22.883 : en:01:35:22.883
    01:44:06.281 : en:01:44:06.281
    01:45:47.507 : en:01:45:47.507
    01:54:24.607 : en:01:54:24.607

    Размер скачиваемого торрента: 17.36 GB (18638769511 Bytes)

    Иллюзия обмана / Now You See Me (2013) BDRip 1080p от GORESEWAGE | Extended Cut скачать через торрент бесплатно
    загрузка...
    Рейтинг →
     (голосов: 1, оценка 3/5, голосовать можно 1 раз )

    Другие торренты по теме:

  • Иллюзия обмана / Now You See Me (2012) HDRip | D | Трейлер торрент скачать бесплатно
  • Иллюзия обмана / Now You See Me (2013) HDRip | Звук с TS торрент скачать бесплатно
  • Иллюзия обмана / Now You See Me (2013) BDRip 1080p | iTunes торрент скачать бесплатно
  • Иллюзия обмана / Now You See Me (2013) Blu-Ray Remux 1080p | iTunes торрент скачать бесплатно
  • Иллюзия обмана / Now You See Me (2013) HDRip | iTunes торрент скачать бесплатно
  • Иллюзия обмана / Now You See Me (2013) BDRip 720p от INTERCINEMA | iTunes торрент скачать бесплатно
  • Иллюзия обмана / Now You See Me (2013) BDRip-AVC от leonardo 59 Scarabey | iTunes Russia торрент скачать бесплатно
  • Иллюзия обмана / Now You See Me (2013) HDRip от -=HD-NET=- | КПК | iTunes Russia торрент скачать бесплатно


    • Комментарии (0):

      Информация

      Информация

        Посетители, находящиеся в группе Гости, не могут оставлять комментарии в данной новости.

        ↓ Меню



        ↓ Опрос

        А Вы добавили сайт в закладки?
        Да
        Не


        Top 10 за неделю (Фильмы)