.
Авторизация | Регистрация
» » Иллюзия обмана / Now You See Me (2013) BDRemux 1080p от GORESEWAGE | Extended Cut скачать через торрент бесплатно




    Иллюзия обмана / Now You See Me (2013) BDRemux 1080p от GORESEWAGE | Extended Cut скачать через торрент бесплатно

    Опубликовал: Админ | Дата: 27-02-2015, 11:10 | Просмотров: 229



    Русское название: Иллюзия обмана
    Русское название в мировом прокате: Now You See Me
    Создали в: 2013
    Снималось в: Франция, США
    Категория жанра: триллер, криминал, детектив
    Время просмотра: 02:04:48
    Перевод текста 1: Профессиональный (дублированный) AVO Ю. Сербин (на расширенные сцены)
    Перевод текста 2: Авторский (одноголосый закадровый) Л. Володарский
    Перевод текста 3: Авторский (одноголосый закадровый) А. Гаврилов
    Перевод текста 4: Авторский (одноголосый закадровый) Ю. Сербинн
    Оригинальная аудиодорожка: Английская
    Субтитры: Русские (Full Notabenoid), английские (Full, SDH)
    Киностудия: Summit Entertainment, K/O Paper Products, SOIXAN7E QUIN5E

    Главный режиссёр: Луи Летерье / Louis Leterrier

    Актеры: Марк Руффало, Джесси Айзенберг, Вуди Харрельсон, Айла Фишер, Дэйв Франко, Мелани Лоран, Морган Фриман, Майкл Кейн, Майкл Келли, Коммон и др.

    Сюжет: Команда лучших иллюзионистов мира проворачивает дерзкие ограбления прямо во время своих шоу, играя в кошки-мышки с агентами ФБР.



    Sample

    Качество фильма: BDRemux 1080p (Now You See Me 2013 1080p Blu-ray AVC DTS-HD MA 7.1-HDWinG)
    Контейнер: MKV
    Информация о видео кодек: MPEG-4 AVC Video
    Информация о звуке кодек: DTS-HD MA / AC3
    Информация о видео: MPEG-4 AVC Video / 21386 kbps / 1920x1080p / 23,976 fps / 16:9 / High Profile 4.1
    Информация о звуке 1: Russian / AC3 / 5.1 / 48 kHz / 448 kbps / 16-bit / Dub AVO Ю. Сербин
    Информация о звуке 2: Russian / DTS-HD MA / 7.1 / 48 kHz / 5164 kbps / 24-bit (DTS Core: 5.1 / 48 kHz / 1536 kbps / 24-bit) / AVO Л. Володарский
    Информация о звуке 3: Russian / DTS-HD MA / 7.1 / 48 kHz / 5158 kbps / 24-bit (DTS Core: 5.1 / 48 kHz / 1536 kbps / 24-bit) / AVO А. Гаврилов
    Информация о звуке 4: Russian / DTS-HD MA / 7.1 / 48 kHz / 5187 kbps / 24-bit (DTS Core: 5.1 / 48 kHz / 1536 kbps / 24-bit) / AVO Ю. Сербин
    Информация о звуке 5: English / DTS-HD MA / 7.1 / 48 kHz / 5171 kbps / 24-bit (DTS Core: 5.1 / 48 kHz / 1536 kbps / 24-bit) / Original
    Информация о звуке 6: English / AC3 / 2.0 / 48 kHz / 224 kbps / 16-bit / Commentary #1
    Информация о звуке 7: English / AC3 / 2.0 / 48 kHz / 224 kbps / 16-bit / Commentary #2
    Навигация по главам: да

    Дополнительная информация

    * Перевод Леонида Володарского доступен благодаря пользователям форума E180.
    * Перевод Андрея Гаврилова доступен благодаря пользователям форума HDTracker: -Джосс-, Brown15, chefchef, Chistobaev, denis_mgn_1987, dunhill200, edsz, feldeger, fly32, foxlight, GaryH, Guyver, Hattori Hanzo, karantin66, kinobbk, kovadim, KpucTo161, Letyoha3, Loki, milocerd0v, nimph, Pain_70, rydanes, SavineX, shitman82, Skibichok, therox, v111o, vadamk, Vimann, Xerman13, YoGuRt-82, zeleniydzhan, ZeRoNe, Диммон, _MyxAmoP_ , lexal, hulahup, carter64, Tio, Role, Tehnar, Rolly Tyler, overdose, LAVR, Jiraya87, audiolubitel.
    * Перевод Юрия Сербина доступен благодаря пользователям форума HDClub: Dervish, GKillah, Loki1982, Luka69, tambov68, denismgn1987, ultrajeka, RAUL, u6868, Andresoff, bm9701, а так же пользователям форума E180.

    Скриншоты для ознакомления

    MediaInfo
    C:/GORESEWAGE/Now You See Me 2013 Extended Cut BDRemux 1080p GORESEWAGE.mkv
    General
    Unique ID : 200218275115720490195914255822733012712 (0x96A0A31BFE444B05AA8333C013416EE8)
    Complete name : C:/GORESEWAGE/Now You See Me 2013 Extended Cut BDRemux 1080p GORESEWAGE.mkv
    Format : Matroska
    Format version : Version 4 / Version 2
    File size : 37.4 GiB
    Duration : 2h 4mn
    Overall bit rate mode : Variable
    Overall bit rate : 42.9 Mbps
    Movie name : Now You See Me 2013 Extended Cut BDRemux 1080p GORESEWAGE
    Encoded date : UTC 2014-01-30 17:46:37
    Writing application : mkvmerge v6.7.0 (;Back to the Ground;) 64bit built on Jan 8 2014 15:10:52
    Writing library : libebml v1.3.0 libmatroska v1.4.1
    Attachment : Yes
    Video #1
    ID : 1
    Format : AVC
    Format/Info : Advanced Video Codec
    Format profile : High@L4.1
    Format settings, CABAC : Yes
    Format settings, ReFrames : 4 frames
    Codec ID : V_MPEG4/ISO/AVC
    Duration : 2h 4mn
    Bit rate mode : Variable
    Maximum bit rate : 37.0 Mbps
    Width : 1 920 pixels
    Height : 1 080 pixels
    Display aspect ratio : 16:9
    Frame rate mode : Constant
    Frame rate : 23.976 fps
    Color space : YUV
    Chroma subsampling : 4:2:0
    Bit depth : 8 bits
    Scan type : Progressive
    Title : Now You See Me 2013 Extended Cut BDRemux 1080p GORESEWAGE
    Language : English
    Default : Yes
    Forced : No
    Audio #2
    ID : 2
    Format : AC-3
    Format/Info : Audio Coding 3
    Mode extension : CM (complete main)
    Format settings, Endianness : Big
    Codec ID : A_AC3
    Duration : 2h 4mn
    Bit rate mode : Constant
    Bit rate : 448 Kbps
    Channel count : 6 channels
    Channel positions : Front: L C R, Side: L R, LFE
    Sampling rate : 48.0 KHz
    Bit depth : 16 bits
    Compression mode : Lossy
    Stream size : 400 MiB (1%)
    Title : Dub AVO Ю. Сербин
    Language : Russian
    Default : Yes
    Forced : No
    Audio #3
    ID : 3
    Format : DTS
    Format/Info : Digital Theater Systems
    Format profile : MA / Core
    Mode : 16
    Format settings, Endianness : Big
    Codec ID : A_DTS
    Duration : 2h 4mn
    Bit rate mode : Variable
    Bit rate : Unknown / 1 509 Kbps
    Channel count : 8 channels / 6 channels
    Channel positions : Front: L C R, Side: L R, Back: L R, LFE / Front: L C R, Side: L R, LFE
    Sampling rate : 48.0 KHz
    Bit depth : 24 bits
    Compression mode : Lossless / Lossy
    Title : AVO Л. Володарский
    Language : Russian
    Default : No
    Forced : No
    Audio #4
    ID : 4
    Format : DTS
    Format/Info : Digital Theater Systems
    Format profile : MA / Core
    Mode : 16
    Format settings, Endianness : Big
    Codec ID : A_DTS
    Duration : 2h 4mn
    Bit rate mode : Variable
    Bit rate : Unknown / 1 509 Kbps
    Channel count : 8 channels / 6 channels
    Channel positions : Front: L C R, Side: L R, Back: L R, LFE / Front: L C R, Side: L R, LFE
    Sampling rate : 48.0 KHz
    Bit depth : 24 bits
    Compression mode : Lossless / Lossy
    Title : AVO А. Гаврилов
    Language : Russian
    Default : No
    Forced : No
    Audio #5
    ID : 5
    Format : DTS
    Format/Info : Digital Theater Systems
    Format profile : MA / Core
    Mode : 16
    Format settings, Endianness : Big
    Codec ID : A_DTS
    Duration : 2h 4mn
    Bit rate mode : Variable
    Bit rate : Unknown / 1 509 Kbps
    Channel count : 8 channels / 6 channels
    Channel positions : Front: L C R, Side: L R, Back: L R, LFE / Front: L C R, Side: L R, LFE
    Sampling rate : 48.0 KHz
    Bit depth : 24 bits
    Compression mode : Lossless / Lossy
    Title : AVO Ю. Сербин
    Language : Russian
    Default : No
    Forced : No
    Audio #6
    ID : 6
    Format : DTS
    Format/Info : Digital Theater Systems
    Format profile : MA / Core
    Mode : 16
    Format settings, Endianness : Big
    Codec ID : A_DTS
    Duration : 2h 4mn
    Bit rate mode : Variable
    Bit rate : Unknown / 1 509 Kbps
    Channel count : 8 channels / 6 channels
    Channel positions : Front: L C R, Side: L R, Back: L R, LFE / Front: L C R, Side: L R, LFE
    Sampling rate : 48.0 KHz
    Bit depth : 24 bits
    Compression mode : Lossless / Lossy
    Title : Original
    Language : English
    Default : No
    Forced : No
    Audio #7
    ID : 7
    Format : AC-3
    Format/Info : Audio Coding 3
    Format profile : Dolby Digital
    Mode extension : CM (complete main)
    Format settings, Endianness : Big
    Codec ID : A_AC3
    Duration : 2h 4mn
    Bit rate mode : Constant
    Bit rate : 224 Kbps
    Channel count : 2 channels
    Channel positions : Front: L R
    Sampling rate : 48.0 KHz
    Bit depth : 16 bits
    Compression mode : Lossy
    Stream size : 200 MiB (1%)
    Title : Commentary #1
    Language : English
    Default : No
    Forced : No
    Audio #8
    ID : 8
    Format : AC-3
    Format/Info : Audio Coding 3
    Format profile : Dolby Digital
    Mode extension : CM (complete main)
    Format settings, Endianness : Big
    Codec ID : A_AC3
    Duration : 2h 4mn
    Bit rate mode : Constant
    Bit rate : 224 Kbps
    Channel count : 2 channels
    Channel positions : Front: L R
    Sampling rate : 48.0 KHz
    Bit depth : 16 bits
    Compression mode : Lossy
    Stream size : 200 MiB (1%)
    Title : Commentary #2
    Language : English
    Default : No
    Forced : No
    Text #9
    ID : 9
    Format : UTF-8
    Codec ID : S_TEXT/UTF8
    Codec ID/Info : UTF-8 Plain Text
    Title : Full Notabenoid
    Language : Russian
    Default : No
    Forced : No
    Text #10
    ID : 10
    Format : UTF-8
    Codec ID : S_TEXT/UTF8
    Codec ID/Info : UTF-8 Plain Text
    Title : Full
    Language : English
    Default : No
    Forced : No
    Text #11
    ID : 11
    Format : UTF-8
    Codec ID : S_TEXT/UTF8
    Codec ID/Info : UTF-8 Plain Text
    Title : SDH
    Language : English
    Default : No
    Forced : No
    Menu
    00:00:00.000 : en:00:00:00.000
    00:08:26.548 : en:00:08:26.548
    00:14:41.923 : en:00:14:41.923
    00:21:25.868 : en:00:21:25.868
    00:32:02.003 : en:00:32:02.003
    00:39:29.158 : en:00:39:29.158
    00:47:07.199 : en:00:47:07.199
    00:56:43.441 : en:00:56:43.441
    01:04:35.371 : en:01:04:35.371
    01:10:23.135 : en:01:10:23.135
    01:20:04.549 : en:01:20:04.549
    01:29:01.002 : en:01:29:01.002
    01:35:22.883 : en:01:35:22.883
    01:44:06.281 : en:01:44:06.281
    01:45:47.507 : en:01:45:47.507
    01:54:24.607 : en:01:54:24.607

    Размер скачиваемого торрента: 37.37 GB (40126409711 Bytes)

    Иллюзия обмана / Now You See Me (2013) BDRemux 1080p от GORESEWAGE | Extended Cut скачать через торрент бесплатно
    загрузка...
    Рейтинг →
     (голосов: 1, оценка 5/5, голосовать можно 1 раз )

    Другие торренты по теме:

  • Иллюзия обмана / Now You See Me (2012) HDRip | D | Трейлер торрент скачать бесплатно
  • Иллюзия обмана / Now You See Me (2013) HDRip | Звук с TS торрент скачать бесплатно
  • Иллюзия обмана / Now You See Me (2013) BDRip 1080p | iTunes торрент скачать бесплатно
  • Иллюзия обмана / Now You See Me (2013) Blu-Ray Remux 1080p | iTunes торрент скачать бесплатно
  • Иллюзия обмана / Now You See Me (2013) HDRip | iTunes торрент скачать бесплатно
  • Иллюзия обмана / Now You See Me (2013) BDRip 720p от INTERCINEMA | iTunes торрент скачать бесплатно
  • Иллюзия обмана / Now You See Me (2013) BDRip-AVC от leonardo 59 Scarabey | iTunes Russia торрент скачать бесплатно
  • Иллюзия обмана / Now You See Me (2013) HDRip от -=HD-NET=- | КПК | iTunes Russia торрент скачать бесплатно


    • Комментарии (0):

      Информация

      Информация

        Посетители, находящиеся в группе Гости, не могут оставлять комментарии в данной новости.

        ↓ Меню



        ↓ Опрос

        А Вы добавили сайт в закладки?
        Да
        Не


        Top 10 за неделю (Фильмы)

        Мой парень – киллер / Mr. Right (2015) WEB-DL 1080p | L скачать торрент бесплатно

        (просмотров: 331)
        Ёлки 5 (2016) WEB-DLRip скачать торрент бесплатно

        (просмотров: 331)
        Разрушение / Demolition (2015) BDRemux 1080p от ExKinoRay | L скачать торрент бесплатно

        (просмотров: 301)
        Экипаж (2016) BDRip от New-Team | D | Лицензия скачать торрент бесплатно
        АНОНСЫ МОИХ РАЗДАЧ
        (просмотров: 301)
        Экипаж (2016) BDRip от New-Team | D | Лицензия скачать торрент бесплатно
        АНОНСЫ МОИХ РАЗДАЧ
        (просмотров: 271)
        Гений / Genius (2016) WEB-DLRip 1080p | Звук TS скачать торрент бесплатно

        (просмотров: 161)
        Кухня (1-5 сезоны: 1-100 серии из 100 + 2 бонуса) / 2012-2015 / РУ / DVDRip, WEB-DLRip скачать торрент бесплатно

        (просмотров: 151)
        Кухня (2015) SATRip скачать торрент бесплатно
        Кухня ? Кухня (2015) SATRip скачать торрент бесплатно
        (просмотров: 141)
        Дуэлянт (2016) WEB-DLRip от Scarabey | iTunes скачать торрент бесплатно

        (просмотров: 131)
        Демон внутри / Вскрытие Джейн Доу / The Autopsy of Jane Doe (2016) WEB-DLRip от Scarabey | P скачать торрент бесплатно
        Мы В КОНТАКТЕ =)
        (просмотров: 111)