.
Авторизация | Регистрация
» » Груз / Cargo (2009) BDRemux 1080p от GORESEWAGE скачать через торрент бесплатно




    Груз / Cargo (2009) BDRemux 1080p от GORESEWAGE скачать через торрент бесплатно

    Опубликовал: Админ | Дата: 27-02-2015, 11:10 | Просмотров: 296



    Русское название: Груз
    Русское название в мировом прокате: Cargo
    Создали в: 2009
    Снималось в: Швейцария
    Категория жанра: фантастика, триллер, детектив
    Время просмотра: 01:51:49
    Перевод текста 1: Профессиональный (многоголосый закадровый) TB3
    Перевод текста 2: Любительский (двухголосый закадровый) ELEKTRI4KA
    Перевод текста 3: Одноголосый закадровый А. Дасевич
    Перевод текста 4: Одноголосый закадровый -Anubis-
    Оригинальная аудиодорожка: Немецкая
    Субтитры: Русские (Full ТутНахОМОН999), английские (Full)
    Киностудия: Atlantis Pictures, Centauri Media, Schweizerische Radio- und Fernsehgesellschaft (SRG)

    Главный режиссёр: Иван Энглер / Ivan Engler, Ральф Эттер / Ralph Etter

    Актеры: Анна Шваброх, Мартин Рапольд, Регула Граувилер, Янгзом Брауен, Пьер Семмлер, Клод-Оливер Рудольф, Михаэль Фингер, Жиль Чуди, Мариа Боттнер, Ноа Струплер и др.

    Сюжет: Год 2267. Земля стала необитаемой из-за экологической катастрофы, а выжившие живут в переполненных космических станциях на орбите Земли. Молодой доктор Лаура Портман одна из них. Она надеется на лучшее будущее далёкой планеты Рея. Но чтобы попасть на неё - нужны деньги. Лаура подписывает контракт и устраивается в корпорацию Койпер для работы на старом грузовом корабле Кассандра, который проделает путь к станции N42 и обратно за 8 лет. Полет полностью автоматический, во время которого члены экипажа проводят большую часть в состоянии глубокого сна, пока один дежурит 8,5 месяцев. Из-за террористической угрозы на корабле присутствует дополнительно Самуэль Деккер, ответственный за безопасность. К концу своей смены, Лаура Портман слышит необычный шум из грузового отсека. Она поднимает членов экипажа, чтобы исследовать холодные грузовые трюмы корабля. После первых смертей, все начинают не доверять друг другу. Лаура и Самуэль раскрывают истинное содержание груза и назначение корабля…



    Sample

    Качество фильма: BDRemux 1080p (Cargo 2009 1080p Ger Blu-ray REMUX AVC DTS-HD MA5.1-CHD)
    Контейнер: MKV
    Информация о видео кодек: MPEG-4 AVC Video
    Информация о звуке кодек: DTS-HD MA / AC3
    Информация о видео: MPEG-4 AVC Video / 20003 kbps / 1920x1080p / 23,976 fps / 16:9 / High Profile 4.1
    Информация о звуке 1: Russian / AC3 / 2.0 / 48 kHz / 192 kbps / 16-bit / MVO TB3
    Информация о звуке 2: Russian / AC3 / 5.1 / 48 kHz / 448 kbps / 16-bit / DVO ELEKTRI4KA
    Информация о звуке 3: Russian / DTS-HD MA / 5.1 / 48 kHz / 2480 kbps / 16-bit (DTS Core: 5.1 / 48 kHz / 1536 kbps / 16-bit) / VO А. Дасевич
    Информация о звуке 4: Russian / AC3 / 5.1 / 48 kHz / 448 kbps / 16-bit / VO -Anubis-
    Информация о звуке 5: German / DTS-HD MA / 5.1 / 48 kHz / 2477 kbps / 16-bit (DTS Core: 5.1 / 48 kHz / 1536 kbps / 16-bit) / Original
    Информация о звуке 6: German / AC3 / 2.0 / 48 kHz / 192 kbps / 16-bit / Commentary #1
    Информация о звуке 7: German / AC3 / 2.0 / 48 kHz / 192 kbps / 16-bit / Commentary #2
    Навигация по главам: да

    Скриншоты для ознакомления

    MediaInfo
    C:/GORESEWAGE/Cargo 2009 GER Transfer BDRemux 1080p GORESEWAGE.mkv
    General
    Unique ID : 171659772519999628791823484879106103237 (0x81247838A47EAE17B9142943668257C5)
    Complete name : C:/GORESEWAGE/Cargo 2009 GER Transfer BDRemux 1080p GORESEWAGE.mkv
    Format : Matroska
    Format version : Version 4 / Version 2
    File size : 20.6 GiB
    Duration : 1h 51mn
    Overall bit rate mode : Variable
    Overall bit rate : 26.4 Mbps
    Movie name : Cargo 2009 GER Transfer BDRemux 1080p GORESEWAGE
    Encoded date : UTC 2014-02-03 23:23:52
    Writing application : mkvmerge v6.7.0 (;Back to the Ground;) 64bit built on Jan 8 2014 15:10:52
    Writing library : libebml v1.3.0 libmatroska v1.4.1
    Attachment : Yes
    Video #1
    ID : 1
    Format : AVC
    Format/Info : Advanced Video Codec
    Format profile : High@L4.1
    Format settings, CABAC : Yes
    Format settings, ReFrames : 4 frames
    Format settings, GOP : M=3, N=18
    Codec ID : V_MPEG4/ISO/AVC
    Duration : 1h 51mn
    Bit rate mode : Variable
    Maximum bit rate : 35.0 Mbps
    Width : 1 920 pixels
    Height : 1 080 pixels
    Display aspect ratio : 16:9
    Frame rate mode : Constant
    Frame rate : 23.976 fps
    Standard : NTSC
    Color space : YUV
    Chroma subsampling : 4:2:0
    Bit depth : 8 bits
    Scan type : Progressive
    Title : Cargo 2009 GER Transfer BDRemux 1080p GORESEWAGE
    Language : German
    Default : Yes
    Forced : No
    Color primaries : BT.709
    Transfer characteristics : BT.709
    Matrix coefficients : BT.709
    Audio #2
    ID : 2
    Format : AC-3
    Format/Info : Audio Coding 3
    Mode extension : CM (complete main)
    Format settings, Endianness : Big
    Codec ID : A_AC3
    Duration : 1h 51mn
    Bit rate mode : Constant
    Bit rate : 192 Kbps
    Channel count : 2 channels
    Channel positions : Front: L R
    Sampling rate : 48.0 KHz
    Bit depth : 16 bits
    Compression mode : Lossy
    Stream size : 154 MiB (1%)
    Title : MVO TB3
    Language : Russian
    Default : Yes
    Forced : No
    Audio #3
    ID : 3
    Format : AC-3
    Format/Info : Audio Coding 3
    Mode extension : CM (complete main)
    Format settings, Endianness : Big
    Codec ID : A_AC3
    Duration : 1h 51mn
    Bit rate mode : Constant
    Bit rate : 448 Kbps
    Channel count : 6 channels
    Channel positions : Front: L C R, Side: L R, LFE
    Sampling rate : 48.0 KHz
    Bit depth : 16 bits
    Compression mode : Lossy
    Stream size : 358 MiB (2%)
    Title : DVO ELEKTRI4KA
    Language : Russian
    Default : No
    Forced : No
    Audio #4
    ID : 4
    Format : DTS
    Format/Info : Digital Theater Systems
    Format profile : MA / Core
    Mode : 16
    Format settings, Endianness : Big
    Codec ID : A_DTS
    Duration : 1h 51mn
    Bit rate mode : Variable
    Bit rate : Unknown / 1 509 Kbps
    Channel count : 6 channels
    Channel positions : Front: L C R, Side: L R, LFE
    Sampling rate : 48.0 KHz
    Bit depth : 16 bits
    Compression mode : Lossless / Lossy
    Title : VO Дасевич
    Language : Russian
    Default : No
    Forced : No
    Audio #5
    ID : 5
    Format : AC-3
    Format/Info : Audio Coding 3
    Mode extension : CM (complete main)
    Format settings, Endianness : Big
    Codec ID : A_AC3
    Duration : 1h 51mn
    Bit rate mode : Constant
    Bit rate : 448 Kbps
    Channel count : 6 channels
    Channel positions : Front: L C R, Side: L R, LFE
    Sampling rate : 48.0 KHz
    Bit depth : 16 bits
    Compression mode : Lossy
    Stream size : 358 MiB (2%)
    Title : VO -Anubis-
    Language : Russian
    Default : No
    Forced : No
    Audio #6
    ID : 6
    Format : DTS
    Format/Info : Digital Theater Systems
    Format profile : MA / Core
    Mode : 16
    Format settings, Endianness : Big
    Codec ID : A_DTS
    Duration : 1h 51mn
    Bit rate mode : Variable
    Bit rate : Unknown / 1 509 Kbps
    Channel count : 6 channels
    Channel positions : Front: L C R, Side: L R, LFE
    Sampling rate : 48.0 KHz
    Bit depth : 16 bits
    Compression mode : Lossless / Lossy
    Title : Original
    Language : German
    Default : No
    Forced : No
    Audio #7
    ID : 7
    Format : AC-3
    Format/Info : Audio Coding 3
    Mode extension : CM (complete main)
    Format settings, Endianness : Big
    Codec ID : A_AC3
    Duration : 1h 51mn
    Bit rate mode : Constant
    Bit rate : 192 Kbps
    Channel count : 2 channels
    Channel positions : Front: L R
    Sampling rate : 48.0 KHz
    Bit depth : 16 bits
    Compression mode : Lossy
    Stream size : 154 MiB (1%)
    Title : Commentary #1
    Language : German
    Default : No
    Forced : No
    Audio #8
    ID : 8
    Format : AC-3
    Format/Info : Audio Coding 3
    Mode extension : CM (complete main)
    Format settings, Endianness : Big
    Codec ID : A_AC3
    Duration : 1h 51mn
    Bit rate mode : Constant
    Bit rate : 192 Kbps
    Channel count : 2 channels
    Channel positions : Front: L R
    Sampling rate : 48.0 KHz
    Bit depth : 16 bits
    Compression mode : Lossy
    Stream size : 154 MiB (1%)
    Title : Commentary #2
    Language : German
    Default : No
    Forced : No
    Text #9
    ID : 9
    Format : UTF-8
    Codec ID : S_TEXT/UTF8
    Codec ID/Info : UTF-8 Plain Text
    Title : Full ТутНахОМОН999
    Language : Russian
    Default : No
    Forced : No
    Text #10
    ID : 10
    Format : UTF-8
    Codec ID : S_TEXT/UTF8
    Codec ID/Info : UTF-8 Plain Text
    Title : Full
    Language : English
    Default : No
    Forced : No
    Menu
    00:00:00.000 : en:00:00:00.000
    00:05:47.554 : en:00:05:47.554
    00:10:12.298 : en:00:10:12.298
    00:15:19.345 : en:00:15:19.345
    00:20:55.878 : en:00:20:55.878
    00:25:32.970 : en:00:25:32.970
    00:30:45.465 : en:00:30:45.465
    00:35:04.777 : en:00:35:04.777
    00:40:33.809 : en:00:40:33.809
    00:45:28.437 : en:00:45:28.437
    00:50:25.168 : en:00:50:25.168
    00:55:01.416 : en:00:55:01.416
    01:00:37.902 : en:01:00:37.902
    01:05:57.970 : en:01:05:57.970
    01:10:48.302 : en:01:10:48.302
    01:15:23.436 : en:01:15:23.436
    01:20:34.789 : en:01:20:34.789
    01:25:11.345 : en:01:25:11.345
    01:30:55.998 : en:01:30:55.998
    01:35:44.496 : en:01:35:44.496
    01:40:57.311 : en:01:40:57.311
    01:45:49.123 : en:01:45:49.123
    01:50:01.012 : en:01:50:01.012

    Размер скачиваемого торрента: 20.64 GB (22165977086 Bytes)

    Груз / Cargo (2009) BDRemux 1080p от GORESEWAGE скачать через торрент бесплатно
    загрузка...
    Рейтинг →
     (голосов: 1, оценка 4/5, голосовать можно 1 раз )

    Другие торренты по теме:

  • Путешествия по местам виноделия. Сумасшедшая француженка в Грузии / Journey into Wine (2009) HDTVRip торрент скачать бесплатно
  • Ценный груз / Cargo (2013) HD 720p торрент скачать бесплатно
  • Тарантулы: Смертоносный груз / Tarantulas: The Deadly Cargo (1977) DVDRip торрент скачать бесплатно
  • Побег: Живой груз / Escape: Human Cargo (1998) DVDRip | от NovaLan торрент скачать бесплатно
  • Груз (2013) SATRip торрент скачать бесплатно
  • Груз / Cargo (2009) BDRip-AVC от Rulya74 торрент скачать бесплатно
  • Каспийский Груз - Пиджакикостюмы (2014) MP3 от AGR - Generalfilm торрент скачать бесплатно
  • Груз / Cargo (2013) WEBRip | Точка Zрения торрент скачать бесплатно


    • Комментарии (0):

      Информация

      Информация

        Посетители, находящиеся в группе Гости, не могут оставлять комментарии в данной новости.

        ↓ Меню



        ↓ Опрос

        А Вы добавили сайт в закладки?
        Да
        Не


        Top 10 за неделю (Фильмы)