.
Авторизация | Регистрация
» » Констебль / The Constable (2013) BDRip 720p | L2 скачать через торрент бесплатно




    Констебль / The Constable (2013) BDRip 720p | L2 скачать через торрент бесплатно

    Опубликовал: Админ | Дата: 27-02-2015, 11:10 | Просмотров: 208



    Детально о кино
    Русское название: Констебль
    Русское название в мировом прокате: The Constable
    Создали в: 2013
    Категория жанра: боевик, криминал
    Главный режиссер: Дэннис Ло
    Актеры: Саймон Ям, Хой-Панг Ло, Сует Лам, Мэгги Сиу, Сэм Ли

    Сюжет фильма: Лам Квок Куэнь полицейский со стажем, который заботится о своём больном сыне...Но его сын умирает и теперь, Куэнь может вернуться в уголовный отдел, из которого ушел 11 лет назад, чтобы вновь начать бороться с преступностью...Теперь уже, безо всяких оглядок на дом и привязанности, поскольку главный смысл его жизни утрачен.



    Снималось в: Гонконг
    Время просмотра: 01:40:01
    Тип перевода: Любительское (двухголосое) den904 DeadSno, перевод Ками

    Файл
    Тип видео: MKV
    Качество фильма: BDRip 720p
    Информация о видео: 4806 kb/s, 1280x546
    Информация о звуке: AC3, 192 kb/s (2 ch)





    MI

    Format : Matroska
    Format version : Version 4 / Version 2
    File size : 3.50 GiB
    Duration : 1h 40mn
    Overall bit rate mode : Variable
    Overall bit rate : 5 005 Kbps
    Movie name : Jubowo @ WiKi
    Encoded date : UTC 2014-02-03 19:14:36
    Writing application : mkvmerge v6.2.0 (;Promised Land;) built on Apr 28 2013 12:22:01
    Writing library : libebml v1.3.0 libmatroska v1.4.0

    Video
    ID : 1
    Format : AVC
    Format/Info : Advanced Video Codec
    Format profile : High@L4.1
    Format settings, CABAC : Yes
    Format settings, ReFrames : 11 frames
    Codec ID : V_MPEG4/ISO/AVC
    Duration : 1h 40mn
    Bit rate mode : Variable
    Bit rate : 4 806 Kbps
    Maximum bit rate : 40.0 Mbps
    Width : 1 280 pixels
    Height : 546 pixels
    Display aspect ratio : 2.35:1
    Frame rate : 24.000 fps
    Color space : YUV
    Chroma subsampling : 4:2:0
    Bit depth : 8 bits
    Scan type : Progressive
    Bits/(Pixel*Frame) : 0.287
    Stream size : 3.29 GiB (94%)
    Writing library : x264 core 129 r2245 704 36 8e61944 tMod MixAQ 8-bit@4:2:0 X86_64
    Encoding settings : cabac=1 / ref=11 / deblock=1:-3:-3 / analyse=0x3:0x133 / me=umh / subme=11 / psy=1 / fade_compensate=0.00 / psy_rd=1.05:0.10 / mixed_ref=1 / me_range=32 / chroma_me=1 / trellis=2 / 8x8dct=1 / cqm=0 / deadzone=21,11 / fast_pskip=0 / chroma_qp_offset=-3 / threads=18 / lookahead_threads=3 / sliced_threads=0 / nr=0 / decimate=0 / interlaced=0 / bluray_compat=0 / constrained_intra=0 / fgo=0 / bframes=8 / b_pyramid=2 / b_adapt=2 / b_bias=0 / direct=3 / weightb=1 / open_gop=0 / weightp=2 / keyint=250 / keyint_min=23 / scenecut=40 / intra_refresh=0 / rc_lookahead=80 / rc=2pass / mbtree=1 / bitrate=4806 / ratetol=1.0 / qcomp=0.70 / qpmin=0 / qpmax=69 / qpstep=4 / cplxblur=20.0 / qblur=0.5 / ip_ratio=1.40 / aq=3 / aq-strength=0.80 / aq-sensitivity=10.00 / aq-ifactor=1.00 / aq-pfactor=1.00 / aq-bfactor=1.00 / aq2
    Language : Chinese
    Default : Yes
    Forced : No
    Matrix coefficients : BT.709-5, BT.1361, IEC 61966-2-4 709, SMPTE RP177

    Audio
    ID : 2
    Format : AC-3
    Format/Info : Audio Coding 3
    Mode extension : CM (complete main)
    Format settings, Endianness : Big
    Codec ID : A_AC3
    Duration : 1h 40mn
    Bit rate mode : Constant
    Bit rate : 192 Kbps
    Channel(s) : 2 channels
    Channel positions : Front: L R
    Sampling rate : 48.0 KHz
    Bit depth : 16 bits
    Compression mode : Lossy
    Stream size : 137 MiB (4%)
    Default : Yes
    Forced : No
    Скриншоты для ознакомления

    Размер скачиваемого торрента: 3.50 GB (3754510499 Bytes)

    Констебль / The Constable (2013) BDRip 720p | L2 скачать через торрент бесплатно
    загрузка...
    Рейтинг →
     (голосов: 1, оценка 3/5, голосовать можно 1 раз )

    Другие торренты по теме:

  • Констебль / The Constable (2013) HDRip | L2 торрент скачать бесплатно
  • Констебль / Chung fung jin ging / The Constable (2013) BDRip 1080p от CINEMANIA | L2 торрент скачать бесплатно
  • Найо Марш - На каждом шагу констебли (2012) MP3 скачать через торрент бесплатно
  • Констебль / The Constable / Chung fung jin ging (2013) HDRip от RG Orient Extreme | L2 торрент скачать бесплатно
  • Женщина-констебль 56 (3 сезон: 1-5 серии из 5) / WPC 56 / 2015 / ПМ (ТВЦ) / HDTVRip скачать торрент бесплатно


    • Комментарии (0):

      Информация

      Информация

        Посетители, находящиеся в группе Гости, не могут оставлять комментарии в данной новости.

        ↓ Меню



        ↓ Опрос

        А Вы добавили сайт в закладки?
        Да
        Не


        Top 10 за неделю (Фильмы)