.
Авторизация | Регистрация
Хочешь лучшие торренты? Добавь свой email!
Добавить
» » Девочка по вызову / Call Girl (2013) BDRip 720p | L2 торрент скачать бесплатно




    Девочка по вызову / Call Girl (2013) BDRip 720p | L2 торрент скачать бесплатно

    Опубликовал: Админ | Дата: 27-02-2015, 11:10 | Просмотров: 286



    Детально о кино
    Русское название: Девочка по вызову
    Русское название в мировом прокате: Call Girl
    Создали в: 2013
    Категория жанра: триллер, драма
    Главный режиссер: Микаэль Марсимаин
    Актеры: Sofia Karemyr, Саймон Дж. Бергер, Йозефин Асплунд, Пернилла Аугуст, Андерс Бекман, Свен Нордин, Давид Денсик, Hanna Ullerstam, Сверрир Гуднасон, Maria Alm Norell

    Сюжет фильма: Политический триллер, основанный на событиях, произошедших в политический жизни Швеции в 1977 году — тогда достоянием общественности стала информация о том, что министр юстиции Леннарт Гейр является клиентом одного из публичных домов Стокгольма.



    Снималось в: Швеция, Норвегия, Финляндия, Ирландия
    Время просмотра: 02:19:35
    Тип перевода: Любительское (двухголосое) den904 и DeadSno

    Файл
    Тип видео: MKV
    Качество фильма: BDRip 720p
    Информация о видео: 5986 kb/s, 1280x534
    Информация о звуке: Russian: AC3, 192 kb/s (2 ch) / Swedish: AC3, 640 kb/s (6 ch)
    Субтитры подготовлены: English, Danish, Finnish, Norwegian, Swedish

    MI

    Format : Matroska
    Format version : Version 4 / Version 2
    File size : 6.59 GiB
    Duration : 2h 19mn
    Overall bit rate : 6 758 Kbps
    Encoded date : UTC 2014-02-05 20:56:43
    Writing application : mkvmerge v6.1.0 (;Old Devil;) built on Mar 4 2013 09:10:42
    Writing library : libebml v1.3.0 libmatroska v1.4.0

    Video
    ID : 1
    Format : AVC
    Format/Info : Advanced Video Codec
    Format profile : High@L4.1
    Format settings, CABAC : Yes
    Format settings, ReFrames : 12 frames
    Codec ID : V_MPEG4/ISO/AVC
    Duration : 2h 19mn
    Bit rate : 5 986 Kbps
    Width : 1 280 pixels
    Height : 534 pixels
    Display aspect ratio : 2.40:1
    Frame rate : 24.000 fps
    Color space : YUV
    Chroma subsampling : 4:2:0
    Bit depth : 8 bits
    Scan type : Progressive
    Bits/(Pixel*Frame) : 0.365
    Stream size : 5.65 GiB (86%)
    Writing library : x264 core 133 r2334 704 50 a7549b7 tMod 8-bit@4:2:0 X86_64
    Encoding settings : cabac=1 / ref=12 / deblock=1:-3:-3 / analyse=0x3:0x113 / me=umh / subme=11 / psy=1 / fade_compensate=0.00 / psy_rd=1.10:0.00 / mixed_ref=1 / me_range=32 / chroma_me=1 / trellis=2 / 8x8dct=1 / cqm=0 / deadzone=21,11 / fast_pskip=1 / chroma_qp_offset=-2 / threads=36 / lookahead_threads=4 / sliced_threads=0 / nr=0 / decimate=1 / interlaced=0 / bluray_compat=0 / constrained_intra=0 / fgo=0 / bframes=8 / b_pyramid=2 / b_adapt=2 / b_bias=0 / direct=3 / weightb=1 / open_gop=0 / weightp=2 / keyint=240 / keyint_min=24 / scenecut=40 / intra_refresh=0 / rc_lookahead=50 / rc=abr / mbtree=1 / bitrate=5986 / ratetol=1.0 / qcomp=0.70 / qpmin=0 / qpmax=69 / qpstep=4 / vbv_maxrate=50000 / vbv_bufsize=50000 / nal_hrd=none / ip_ratio=1.40 / aq=4:0.90 / aq-sensitivity=10.00 / aq-factor=1.00:1.00:1.00 / aq2=0 / aq3=0
    Language : English
    Default : Yes
    Forced : No

    Audio #1
    ID : 2
    Format : AC-3
    Format/Info : Audio Coding 3
    Mode extension : CM (complete main)
    Format settings, Endianness : Big
    Codec ID : A_AC3
    Duration : 2h 19mn
    Bit rate mode : Constant
    Bit rate : 192 Kbps
    Channel(s) : 2 channels
    Channel positions : Front: L R
    Sampling rate : 48.0 KHz
    Bit depth : 16 bits
    Compression mode : Lossy
    Stream size : 192 MiB (3%)
    Language : Russian
    Default : Yes
    Forced : No

    Audio #2
    ID : 3
    Format : AC-3
    Format/Info : Audio Coding 3
    Mode extension : CM (complete main)
    Format settings, Endianness : Big
    Codec ID : A_AC3
    Duration : 2h 19mn
    Bit rate mode : Constant
    Bit rate : 640 Kbps
    Channel(s) : 6 channels
    Channel positions : Front: L C R, Side: L R, LFE
    Sampling rate : 48.0 KHz
    Bit depth : 16 bits
    Compression mode : Lossy
    Stream size : 639 MiB (9%)
    Language : Swedish
    Default : No
    Forced : No

    Text #1
    ID : 4
    Format : UTF-8
    Codec ID : S_TEXT/UTF8
    Codec ID/Info : UTF-8 Plain Text
    Language : English
    Default : No
    Forced : No

    Text #2
    ID : 5
    Format : UTF-8
    Codec ID : S_TEXT/UTF8
    Codec ID/Info : UTF-8 Plain Text
    Language : Danish
    Default : No
    Forced : No

    Text #3
    ID : 6
    Format : UTF-8
    Codec ID : S_TEXT/UTF8
    Codec ID/Info : UTF-8 Plain Text
    Language : Finnish
    Default : No
    Forced : No

    Text #4
    ID : 7
    Format : UTF-8
    Codec ID : S_TEXT/UTF8
    Codec ID/Info : UTF-8 Plain Text
    Language : Norwegian
    Default : No
    Forced : No

    Text #5
    ID : 8
    Format : UTF-8
    Codec ID : S_TEXT/UTF8
    Codec ID/Info : UTF-8 Plain Text
    Language : Swedish
    Default : No
    Forced : No

    Text #6
    ID : 9
    Format : UTF-8
    Codec ID : S_TEXT/UTF8
    Codec ID/Info : UTF-8 Plain Text
    Language : Swedish
    Default : No
    Forced : No

    Menu
    00:00:00.000 : en:Chapter 1
    00:10:02.208 : en:Chapter 2
    00:19:22.375 : en:Chapter 3
    00:28:38.125 : en:Chapter 4
    00:39:08.333 : en:Chapter 5
    00:50:59.000 : en:Chapter 6
    00:59:14.625 : en:Chapter 7
    01:09:57.417 : en:Chapter 8
    01:20:36.125 : en:Chapter 9
    01:29:42.250 : en:Chapter 10
    01:40:35.708 : en:Chapter 11
    01:48:53.292 : en:Chapter 12
    01:58:37.833 : en:Chapter 13
    02:10:32.125 : en:Chapter 14
    02:17:31.250 : en:Chapter 15
    Скриншоты для ознакомления

    Размер скачиваемого торрента: 6.59 GB (7075346126 Bytes)

    Девочка по вызову / Call Girl (2013) BDRip 720p | L2 торрент скачать бесплатно
    загрузка...
    Рейтинг →
     (голосов: 1, оценка 5/5, голосовать можно 1 раз )

    Другие торренты по теме:

  • Девочка по вызову / Call Girl (2012) HDRip | L2 скачать через торрент бесплатно
  • Девочка по вызову / Call Girl (2012) BDRip 1080p от CINEMANIA | L2
  • Девочка по вызову / Call Girl (2012) ВDRip | Р2
  • Девочка по имени Варпу / Tytt nimelt Varpu (2016) HDRip | L


    • Комментарии (0):

      Информация

      Информация

        Посетители, находящиеся в группе Гости, не могут оставлять комментарии в данной новости.

        ↓ Меню



        ↓ Опрос

        А Вы добавили сайт в закладки?
        Да
        Не


        Top 10 за месяц (Фильмы)