.
Авторизация | Регистрация
Хочешь лучшие торренты? Добавь свой email!
Добавить
» » Риддик / Riddick (2013) BDRip | Rus Transfer торрент скачать бесплатно




    Риддик / Riddick (2013) BDRip | Rus Transfer торрент скачать бесплатно

    Опубликовал: Админ | Дата: 27-02-2015, 11:10 | Просмотров: 258



    Снималось в: США, Великобритания
    Категория жанра: фантастика, боевик, триллер

    Создали в: 2013

    Время просмотра: 01:54:02

    Перевод текста: Профессиональный (полное дублирование)

    Главный режиссер: Дэвид Туи / David Twohy

    Актеры:

    Вин Дизель (Riddick), Хорди Молья (Santana), Мэтью Нэйбл (Boss Johns), Кэти Сакхофф (Dahl), Дэйв Батиста (Diaz), Букем Вудбайн (Moss), Рауль Трухильо (Lockspur), Конрад Пла (Vargas), Дэнни Бланко (Falco), Карл Урбан (Vaako), Ной Дэнби (Nunez), Нил Напье (Rubio)
    Дублёры: Сергей Чонишвили (Riddick), Александр Коврижных (Santana), Денис Беспалый (Boss Johns), Инна Королёва (Dahl), Сергей Чихачев (Diaz), Артем Маликов (Moss), Пётр Иващенко (Lockspur), Олег Щербинин (Falco), Юрий Брежнев (Vaako), Олег Новиков (Luna), Александр Новиков (Krone), Татьяна Шарко (Santana;s Prisoner)

    Сюжет: Преданный своими и брошенный умирать на пустынной планете, Риддик сражается с хищниками за жизнь и становится сильнее и опаснее себя прежнего. Открывшие на него охоту галактические наемники оказываются пешками в грандиозном плане отмщения. С врагами, возникающими на его пути тогда, когда это нужно самому Риддику, он начинает поход во имя мести, чтобы в конечном счете вернуться на родную Фурию и спасти ее от уничтожения.



    MPAA: R - Лицам до 17 лет обязательно присутствие взрослого

    Качество фильма: BDRip
    Контейнер: AVI
    Информация о видео: XviD, 704x400 (16:9), 1433 kbps, 25 fps, 0,204 bpp
    Информация о звуке: AC3 / 5.1 / 48 kHz / 384 kbps / 16 bit

    Скриншоты для ознакомления

    Media Info

    General
    Complete name : D:my.ripRiddik.2013.BDRip1.46.RusTransfer.by.Дядя_Лёша.avi
    Format : AVI
    Format/Info : Audio Video Interleave
    File size : 1.46 GiB
    Duration : 1h 54mn
    Overall bit rate : 1 827 Kbps
    Writing application : VirtualDubMod 1.5.10.3 | www.virtualdub-fr.org || (build 2550/release)
    Writing library : VirtualDubMod build 2550/release

    Video
    ID : 0
    Format : MPEG-4 Visual
    Format profile : Advanced Simple@L5
    Format settings, BVOP : 1
    Format settings, QPel : No
    Format settings, GMC : No warppoints
    Format settings, Matrix : Custom
    Codec ID : XVID
    Codec ID/Hint : XviD
    Duration : 1h 54mn
    Bit rate : 1 434 Kbps
    Width : 704 pixels
    Height : 400 pixels
    Display aspect ratio : 16:9
    Frame rate : 25.000 fps
    Color space : YUV
    Chroma subsampling : 4:2:0
    Bit depth : 8 bits
    Scan type : Progressive
    Compression mode : Lossy
    Bits/(Pixel*Frame) : 0.204
    Stream size : 1.14 GiB (78%)
    Writing library : XviD 73

    Audio
    ID : 1
    Format : AC-3
    Format/Info : Audio Coding 3
    Mode extension : CM (complete main)
    Codec ID : 2000
    Duration : 1h 54mn
    Bit rate mode : Constant
    Bit rate : 384 Kbps
    Channel(s) : 6 channels
    Channel positions : Front: L C R, Side: L R, LFE
    Sampling rate : 48.0 KHz
    Bit depth : 16 bits
    Compression mode : Lossy
    Stream size : 313 MiB (21%)
    Alignment : Split accross interleaves
    Interleave, duration : 40 ms (1.00 video frame)
    Interleave, preload duration : 500 ms



    Размер скачиваемого торрента: 1.46 GB (1562947584 Bytes)

    Риддик / Riddick (2013) BDRip | Rus Transfer торрент скачать бесплатно
    загрузка...
    Рейтинг →
     (голосов: 1, оценка 4/5, голосовать можно 1 раз )

    Другие торренты по теме:

  • Риддик / Riddick (2013) HD-720p | D | Трейлер
  • Риддик / Riddick (2013) CAMRip
  • Риддик / Riddick (2013) CAMRip *PROPER*
  • Риддик / Riddic (2013) CAMRip *PROPER* скачать через торрент бесплатно
  • Риддик / Riddick (2013) WEBRip | Звук с TS скачать через торрент бесплатно
  • Риддик / Riddick (2013) WEBRip | L1 скачать через торрент бесплатно
  • Риддик / Riddick (2013) DVDRip | Звук с TS
  • Риддик / Riddick (2013) DVDRip | Чистый звук скачать через торрент бесплатно


    • Комментарии (0):

      Информация

      Информация

        Посетители, находящиеся в группе Гости, не могут оставлять комментарии в данной новости.

        ↓ Меню



        ↓ Опрос

        А Вы добавили сайт в закладки?
        Да
        Не


        Top 10 за месяц (Фильмы)