.
Авторизация | Регистрация
Хочешь лучшие торренты? Добавь свой email!
Добавить




Кулак / F.I.S.T (1978) HDTV 1080p торрент скачать бесплатно

Опубликовал: Админ | Дата: 27-02-2015, 11:10 | Просмотров: 581



Детально о кино
Русское название: Кулак
Русское название в мировом прокате: F.I.S.T
Создали в: 1978
Категория жанра: драма
Главный режиссер: Норман Джуисон
Актеры: Сильвестр Сталлоне — Джонни Ковак, Род Стайгер — сенатор Мэдисон, Питер Бойл — Макс Грэм, Мелинда Диллон — Анна Заринкас, Дэвид Хаффман — Эйб Белкин, Кевин Конвей — Винс Дойл, Тони Ло Бьянко — Малыш Милано, Кэсси Йейтс — Молли, Брайан Деннехи — Фрэнк Васко, Энтони Кидис — Кевин Ковак, Ричард Херд — Майк Монахен, Фрэнк Макрей — Линкольн Домбровский.

Сюжет фильма:
Америка 30-х годов. В США разгар экономической депрессии. Это время расцвета мафии и коррупции. Фабрики и заводы терпят колоссальные убытки. Массовые увольнения выбрасывают на улицу толпы недовольных людей. Многие считают за удачу пополнить ряды организованной преступности. Многие, но только не Джонни Ковак. У него есть хорошие связи с мафией, но он выбирает другой путь.

Он вступает в ряды профсоюза и пытается отстоять свое право на труд. Обладая потрясающим даром убеждения, он привлекает под знамена профсоюза толпы людей. Довольно скоро Джонни убеждается, что в рамках закона бороться за свои права — невозможно. И тогда, не обращая внимания на исходящие отовсюду угрозы, он решает бороться с капиталистическими акулами с оружием в руках.




Снималось в: США
Киностудия: Chateau Productions, United Artists, Metro-Goldwyn-Mayer
Время просмотра: 02:05:00
Перевод текста: Профессиональный многоголосый

Файл
Кодек для видео: MPEG2
Качество фильма: HDTV 1080p
Информация о видео: 1920x1088 (16:9), 25.000 fps, MPEG2, 30.7 Mbps
Информация о звуке:
Информация о звуке #1: MP2, 320 Kbps, 48.0 KHz, 2 ch (Rus) Многоголосый закадровый
Субтитры: Нет

Скриншоты для ознакомления


MediaInfo
Формат : MPEG-PS
Размер файла : 27,5 Гбайт
Продолжительность : 2 ч. 4 м.
Общий поток : 31,5 Мбит/сек

Видео
Идентификатор : 224 (0xE0)
Формат : MPEG Video
Версия формата : Version 2
Профиль формата : High@High
Параметр BVOP формата : Да
Параметр матрицы формата : По умолчанию
Продолжительность : 2 ч. 4 м.
Битрейт : 30,7 Мбит/сек
Ширина : 1920 пикселей
Высота : 1088 пикселей
Соотношение сторон : 16:9
Частота кадров : 25,000 кадров/сек
Стандарт вещания : PAL
Цветовое пространство : YUV
Субдискретизация насыщенности : 4:2:0
Битовая глубина : 8 бит
Тип развёртки : Прогрессивная
Метод сжатия : С потерями
Бит/(Пиксели*Кадры) : 0.588
Временной код первого кадра : 00:00:00:14
Оригинал временного кода : Group of pictures t_head
Размер потока : 26,7 Гбайт (97%)
Основные цвета : BT.601 PAL
Характеристики трансфера : BT.470 System B, BT.470 System G
Коэффициенты матрицы : BT.601

Аудио
Идентификатор : 192 (0xC0)
Формат : MPEG Audio
Версия формата : Version 1
Профиль формата : Layer 2
Продолжительность : 2 ч. 4 м.
Вид битрейта : Постоянный
Битрейт : 320 Кбит/сек
Каналы : 2 канала
Частота : 48,0 КГц
Метод сжатия : С потерями
Задержка видео : -200 мс.
Размер потока : 286 Мбайт (1%)



Релиз подготовил: За релиз спасибо multiboy
Залил: Soroka1989
Размер скачиваемого торрента: 27.54 GB (29576079265 Bytes)

Кулак / F.I.S.T (1978) HDTV 1080p торрент скачать бесплатно
загрузка...
Рейтинг →
 (голосов: 1, оценка 4/5, голосовать можно 1 раз )

Другие торренты по теме:

  • Кулак легенды / Fist of Legend / Jing wu ying xiong (1994) HDRip | P
  • Неукротимый кулак / The Invincible Fist / Tie shou wu qing (1969) DVDRip | A
  • Вне времени. Люди величиной с кулак (2010) DVDRip-AVC от Тorrent-Хzona
  • Кровавый кулак 3: Вынужденный поединок / Bloodfist III: Forced To Fight (1991) DVDRip | А
  • Кровавый кулак 2 / Bloodfist II (1990) DVDRip | А
  • Кулак Иисуса / Fist of Jesus (2012) WEB-Rip
  • Железный кулак / Человек с железными кулаками / The Man with the Iron Fists (2012) BDRip 1080p от Youtracker | Лицензия |Театральная версия
  • Кулак ярости / Fist Of Fury / Jing wu men (1972) BDRip-AVC от MediaClub


    • Комментарии (0):

      Информация

      Информация

        Посетители, находящиеся в группе Гости, не могут оставлять комментарии в данной новости.

        ↓ Меню



        ↓ Опрос

        А Вы добавили сайт в закладки?
        Да
        Не


        Top 10 за месяц (Фильмы)