.
Авторизация | Регистрация
» » Одинокий рейнджер / The Lone Ranger (2013) BDRip 1080p от GORESEWAGE скачать через торрент бесплатно




    Одинокий рейнджер / The Lone Ranger (2013) BDRip 1080p от GORESEWAGE скачать через торрент бесплатно

    Опубликовал: Админ | Дата: 27-02-2015, 11:10 | Просмотров: 296



    Русское название: Одинокий рейнджер
    Русское название в мировом прокате: The Lone Ranger
    Создали в: 2013
    Снималось в: США
    Категория жанра: вестерн, приключения, боевик, комедия
    Время просмотра: 02:29:33
    Перевод текста 1: Профессиональный (дублированный)
    Перевод текста 2: Авторский (одноголосый закадровый) Л. Володарский
    Перевод текста 3: Авторский (одноголосый закадровый) Ю. Сербин
    Оригинальная аудиодорожка: Английская
    Субтитры: Russian (Forced, Full), English (Forced, Full, SDH)
    Киностудия: Walt Disney Pictures, Jerry Bruckheimer Films, Blind Wink Productions

    Главный режиссёр: Гор Вербински / Gore Verbinski

    Актеры: Джонни Депп, Арми Хаммер, Том Уилкинсон, Уильям Фихтнер, Рут Уилсон, Барри Пеппер, Хелена Бонем Картер, Брайант Принц. Стивен Рут, Леон Риппи и др.

    Сюжет: История блюстителя закона Джона Рида, который с помощью индейца Тонто стал легендарным мстителем в маске, стоящим на защите справедливости. Тонто с юмором и небылицами повествует о тех приключениях, которые пришлось пережить двум непохожим друг на друга героям, сведенным судьбой для того, чтобы вместе сражаться против общего врага. Им приходится противостоять жадности и коррупции во времена, когда появление первых железных дорог изменило представление о власти и могуществе в мире.



    Sample

    Качество фильма: BDRip 1080p (HDMaNiAcS)
    Контейнер: MKV
    Информация о видео кодек: MPEG-4 AVC Video
    Информация о звуке кодек: DTS / AC3
    Информация о видео: MPEG-4 AVC Video / 16000 kbps / 1920x800p / 23,976 fps / 2.40:1 / High Profile 4.1
    Информация о звуке 1: Russian / AC3 / 5.1 / 48 kHz / 640 kbps / 16-bit / Dub
    Информация о звуке 2: Russian / DTS / 5.1 / 48 kHz / 1536 kbps / 24-bit / AVO Л. Володарский
    Информация о звуке 3: Russian / DTS / 5.1 / 48 kHz / 1536 kbps / 24-bit / AVO Ю. Сербин
    Информация о звуке 4: English / DTS / 5.1 / 48 kHz / 1536 kbps / 24-bit / Original
    Навигация по главам: да

    Дополнительная информация

    * Перевод Леонида Володарского доступен благодаря пользователям HDTracker: 111o, Видео, -Джосс-, Xerman13, Schmulke, Jiraya87, Brown15, dunhill200, Chistobaev, lexal, dupl, kinobbk, karantin66, Luka69, nimph, therox, Pain_70, Role, TOMAN, KpucTo161, Диммон, SavineX, timur, furria62, hulahup.
    * Перевод Юрия Сербина доступен благодаря пользователям E180 DVD100: oleg-k, Nadoelo, Jiraya87, пуля, MyxAmoP, denis_mgn_1987, Некрасов, Guyver, luka69, urassiks, xerman13, olegsoleg, Letyoha3, SavineX78, safreks, muha, dark1982, Chistobaev, masta, Loki1982, dir, Ramis, tide, GKillah, Iceman, AlexNT, YoGuRt-82, Ochkarik1, markinscor, Nick.
    Работа со звуком: -Джосс-.

    Скриншоты для ознакомления

    MediaInfo
    C:/GORESEWAGE/The Lone Ranger 2013 BDRip 1080p GORESEWAGE.mkv
    General
    Unique ID : 190955103426713855044065368815964573789 (0x8FA89D7BEEABEBAD90838FF00584D05D)
    Complete name : C:/GORESEWAGE/The Lone Ranger 2013 BDRip 1080p GORESEWAGE.mkv
    Format : Matroska
    Format version : Version 4 / Version 2
    File size : 22.1 GiB
    Duration : 2h 29mn
    Overall bit rate : 21.2 Mbps
    Movie name : The Lone Ranger 2013 BDRip 1080p GORESEWAGE
    Encoded date : UTC 2014-02-06 19:10:25
    Writing application : mkvmerge v6.1.0 (;Old Devil;) built on Mar 2 2013 14:32:37
    Writing library : libebml v1.3.0 libmatroska v1.4.0
    Attachment : Yes
    Video #1
    ID : 1
    Format : AVC
    Format/Info : Advanced Video Codec
    Format profile : High@L4.1
    Format settings, CABAC : Yes
    Format settings, ReFrames : 5 frames
    Codec ID : V_MPEG4/ISO/AVC
    Duration : 2h 29mn
    Bit rate : 16.0 Mbps
    Width : 1 920 pixels
    Height : 800 pixels
    Display aspect ratio : 2.40:1
    Frame rate mode : Constant
    Frame rate : 23.976 fps
    Color space : YUV
    Chroma subsampling : 4:2:0
    Bit depth : 8 bits
    Scan type : Progressive
    Bits/(Pixel*Frame) : 0.434
    Stream size : 16.3 GiB (74%)
    Title : The Lone Ranger 2013 BDRip 1080p GORESEWAGE
    Writing library : x264 core 138 r2358 9e941d1
    Encoding settings : cabac=1 / ref=5 / deblock=1:-3:-3 / analyse=0x3:0x133 / me=tesa / subme=11 / psy=1 / psy_rd=1.20:0.00 / mixed_ref=1 / me_range=32 / chroma_me=1 / trellis=2 / 8x8dct=1 / cqm=0 / deadzone=21,11 / fast_pskip=1 / chroma_qp_offset=-2 / threads=12 / lookahead_threads=2 / sliced_threads=0 / nr=0 / decimate=1 / interlaced=0 / bluray_compat=0 / constrained_intra=0 / bframes=8 / b_pyramid=2 / b_adapt=2 / b_bias=0 / direct=3 / weightb=1 / open_gop=0 / weightp=2 / keyint=240 / keyint_min=23 / scenecut=40 / intra_refresh=0 / rc=2pass / mbtree=0 / bitrate=16000 / ratetol=1.0 / qcomp=0.60 / qpmin=10 / qpmax=69 / qpstep=4 / cplxblur=20.0 / qblur=0.5 / ip_ratio=1.40 / pb_ratio=1.30 / aq=2:0.75
    Language : English
    Default : Yes
    Forced : No
    Audio #2
    ID : 2
    Format : AC-3
    Format/Info : Audio Coding 3
    Mode extension : CM (complete main)
    Format settings, Endianness : Big
    Codec ID : A_AC3
    Duration : 2h 29mn
    Bit rate mode : Constant
    Bit rate : 640 Kbps
    Channel count : 6 channels
    Channel positions : Front: L C R, Side: L R, LFE
    Sampling rate : 48.0 KHz
    Bit depth : 16 bits
    Compression mode : Lossy
    Stream size : 685 MiB (3%)
    Title : Dub
    Language : Russian
    Default : Yes
    Forced : No
    Audio #3
    ID : 3
    Format : DTS
    Format/Info : Digital Theater Systems
    Mode : 16
    Format settings, Endianness : Big
    Codec ID : A_DTS
    Duration : 2h 29mn
    Bit rate mode : Constant
    Bit rate : 1 510 Kbps
    Channel count : 6 channels
    Channel positions : Front: L C R, Side: L R, LFE
    Sampling rate : 48.0 KHz
    Bit depth : 24 bits
    Compression mode : Lossy
    Stream size : 1.58 GiB (7%)
    Title : AVO Л. Володарский
    Language : Russian
    Default : No
    Forced : No
    Audio #4
    ID : 4
    Format : DTS
    Format/Info : Digital Theater Systems
    Mode : 16
    Format settings, Endianness : Big
    Codec ID : A_DTS
    Duration : 2h 29mn
    Bit rate mode : Constant
    Bit rate : 1 510 Kbps
    Channel count : 6 channels
    Channel positions : Front: L C R, Side: L R, LFE
    Sampling rate : 48.0 KHz
    Bit depth : 24 bits
    Compression mode : Lossy
    Stream size : 1.58 GiB (7%)
    Title : AVO Ю. Сербин
    Language : Russian
    Default : No
    Forced : No
    Audio #5
    ID : 5
    Format : DTS
    Format/Info : Digital Theater Systems
    Mode : 16
    Format settings, Endianness : Big
    Codec ID : A_DTS
    Duration : 2h 29mn
    Bit rate mode : Constant
    Bit rate : 1 509 Kbps
    Channel count : 6 channels
    Channel positions : Front: L C R, Side: L R, LFE
    Sampling rate : 48.0 KHz
    Bit depth : 24 bits
    Compression mode : Lossy
    Stream size : 1.58 GiB (7%)
    Title : Original
    Language : English
    Default : No
    Forced : No
    Text #6
    ID : 6
    Format : UTF-8
    Codec ID : S_TEXT/UTF8
    Codec ID/Info : UTF-8 Plain Text
    Title : Forced
    Language : Russian
    Default : Yes
    Forced : No
    Text #7
    ID : 7
    Format : UTF-8
    Codec ID : S_TEXT/UTF8
    Codec ID/Info : UTF-8 Plain Text
    Title : Full
    Language : Russian
    Default : No
    Forced : No
    Text #8
    ID : 8
    Format : UTF-8
    Codec ID : S_TEXT/UTF8
    Codec ID/Info : UTF-8 Plain Text
    Title : Forced
    Language : English
    Default : No
    Forced : No
    Text #9
    ID : 9
    Format : UTF-8
    Codec ID : S_TEXT/UTF8
    Codec ID/Info : UTF-8 Plain Text
    Title : Full
    Language : English
    Default : No
    Forced : No
    Text #10
    ID : 10
    Format : UTF-8
    Codec ID : S_TEXT/UTF8
    Codec ID/Info : UTF-8 Plain Text
    Title : SDH
    Language : English
    Default : No
    Forced : No
    Menu
    00:00:00.000 : en:00:00:00.000
    00:08:16.121 : en:00:08:16.121
    00:13:38.776 : en:00:13:38.776
    00:24:51.407 : en:00:24:51.407
    00:29:03.033 : en:00:29:03.033
    00:32:05.841 : en:00:32:05.841
    00:40:32.013 : en:00:40:32.013
    00:45:29.644 : en:00:45:29.644
    00:53:29.665 : en:00:53:29.665
    01:01:05.662 : en:01:01:05.662
    01:10:01.614 : en:01:10:01.614
    01:16:12.318 : en:01:16:12.318
    01:24:45.455 : en:01:24:45.455
    01:28:39.731 : en:01:28:39.731
    01:35:35.188 : en:01:35:35.188
    01:41:13.985 : en:01:41:13.985
    01:46:35.806 : en:01:46:35.806
    01:50:02.179 : en:01:50:02.179
    01:53:55.203 : en:01:53:55.203
    01:56:15.260 : en:01:56:15.260
    02:01:51.095 : en:02:01:51.095
    02:12:07.211 : en:02:12:07.211
    02:17:13.934 : en:02:17:13.934
    02:20:20.287 : en:02:20:20.287

    Размер скачиваемого торрента: 22.12 GB (23747943667 Bytes)

    Одинокий рейнджер / The Lone Ranger (2013) BDRip 1080p от GORESEWAGE скачать через торрент бесплатно
    загрузка...
    Рейтинг →
     (голосов: 1, оценка 4/5, голосовать можно 1 раз )

    Другие торренты по теме:

  • Одинокий рейнджер / The Lone Ranger (2013) HD-1080p | D | Трейлер торрент скачать бесплатно
  • Одинокий рейнджер / The Lone Ranger (2013) BDRip-AVC от HELLYWOOD | Лицензия торрент скачать бесплатно
  • Одинокий рейнджер / The Lone Ranger (2013) BDRip от HQ-ViDEO | Лицензия торрент скачать бесплатно
  • Одинокий рейнджер / The Lone Ranger (2013) HDRip от Scarabey | D | Лицензия торрент скачать бесплатно
  • Одинокий рейнджер / The Lone Ranger (2013) HDRip-AVC от ViRTUS | D торрент скачать бесплатно
  • Одинокий рейнджер / The Lone Ranger (2013) BDRip-AVC | Лицензия торрент скачать бесплатно
  • Одинокий рейнджер / The Lone Ranger (2013) BDRip от Youtracker торрент скачать бесплатно
  • Одинокий рейнджер / The Lone Ranger (2013) BDRip 1080p | D | Лицензия торрент скачать бесплатно


    • Комментарии (0):

      Информация

      Информация

        Посетители, находящиеся в группе Гости, не могут оставлять комментарии в данной новости.

        ↓ Меню



        ↓ Опрос

        А Вы добавили сайт в закладки?
        Да
        Не


        Top 10 за неделю (Фильмы)