.
Авторизация | Регистрация
» » Тор 2: Царство тьмы / Thor: The Dark World (2013) BDRip 1080р | 3D-Video | Half OverUnder скачать через торрент бесплатно




    Тор 2: Царство тьмы / Thor: The Dark World (2013) BDRip 1080р | 3D-Video | Half OverUnder скачать через торрент бесплатно

    Опубликовал: Админ | Дата: 27-02-2015, 11:10 | Просмотров: 242



    Снималось в: США
    Категория жанра: фэнтези, боевик, приключения

    Создали в: 2013

    Время просмотра: 01:52:04

    Перевод текста: Профессиональный (полное дублирование)(Чистый звук) Оригинальный
    Субтитры: русские форсированные на эльфийскую речь

    Главный режиссер: Алан Тейлор / Alan Taylor

    Актеры:

    Крис Хемсворт (Thor), Натали Портман (Jane Foster), Том Хиддлстон (Loki), Энтони Хопкинс (Odin), Кристофер Экклстон (Malekith), Джейми Александер (Sif), Закари Левай (Fandral), Рэй Стивенсон (Volstagg), Таданобу Асано (Hogun), Идрис Эльба (Heimdall), Рене Руссо (Frigga), Адевале Акинойе-Агбаже (Algrim /Kurse)
    Дублёры: Иван Жарков (Thor), Татьяна Шитова (Jane Foster), Александр Гаврилин (Loki), Рудольф Панков (Odin), Валерий Сторожик (Malekith), Александра Фатхи (Sif), Данил Щебланов (Fandral), Сергей Чихачев (Volstagg), Радик Мухаметзянов (Hogun), Владислав Копп (Heimdall), Ольга Зубкова (Frigga), Полина Чекан (Darcy Lewis)

    Сюжет: Продолжение приключений одного из членов команды Мстителей, скандинавского бога Тора, которому на этот раз в одиночку предстоит защитить Землю и все девять миров от нашествия неизвестного врага.
    Могучему Тору предстоит вновь сразиться за восстановление порядка в галактике, встретившись лицом к лицу с древней инопланетной расой, ведомой злодеем Малекитом, жаждущим установить в девяти мирах власть тьмы. Столкнувшись с врагом, более могущественным чем сам Один и всё воинство Асгарда, Тор должен собрать силы для решающей битвы. Его ждёт опасное путешествие и долгожданная встреча со своей земной возлюбленной Джейн Фостер. Сможет ли Тор рискнуть самым дорогим, чтобы не дать тьме воцариться на просторах вселенной?



    MPAA: PG-13 - Детям до 13 лет просмотр не желателен

    Качество фильма: BDRip
    Контейнер: MKV
    Тип видео 3d: Half OverUnder / Вертикальная анаморфная стереопара
    Информация о видео: AVC, 1920x1080 (16:9), 11657 kbps, 23,976 fps, 0,234 bpp
    Информация о звуке №1: русский / AC3 / 2.0 / 48 kHz / 384 kbps / 16 bit ||
    Информация о звуке №2: английский / DTS / 5.1 / 48 kHz / 1510 kbps / 24 bit
    Навигация по главам: есть

    Скриншоты для ознакомления

    Media Info

    General
    Unique ID : 184302418370524264928885210636801162086 (0x8AA75AC9716EA46296DF65E4116E3B66)
    Complete name : D:BDThor.The.Dark.World.3D.2013.1080p.BluRay.Half-OU.mkv
    Format : Matroska
    Format version : Version 4 / Version 2
    File size : 10.8 GiB
    Duration : 1h 52mn
    Overall bit rate : 13.8 Mbps
    Encoded date : UTC 2014-02-06 16:26:09
    Writing application : mkvmerge v6.7.0 (;Back to the Ground;) 64bit built on Jan 8 2014 15:10:52
    Writing library : libebml v1.3.0 libmatroska v1.4.1
    Attachment : Yes

    Video
    ID : 1
    Format : AVC
    Format/Info : Advanced Video Codec
    Format profile : High@L4.1
    Format settings, CABAC : Yes
    Format settings, ReFrames : 2 frames
    Codec ID : V_MPEG4/ISO/AVC
    Duration : 1h 52mn
    Bit rate : 11.6 Mbps
    Width : 1 920 pixels
    Height : 1 080 pixels
    Display aspect ratio : 16:9
    Frame rate mode : Constant
    Frame rate : 23.976 fps
    Color space : YUV
    Chroma subsampling : 4:2:0
    Bit depth : 8 bits
    Scan type : Progressive
    Bits/(Pixel*Frame) : 0.234
    Stream size : 9.12 GiB (84%)
    Writing library : x264 core
    Language : English
    Default : Yes
    Forced : No
    Color primaries : BT.709
    Transfer characteristics : BT.709
    Matrix coefficients : BT.709

    Audio #1
    ID : 2
    Format : AC-3
    Format/Info : Audio Coding 3
    Mode extension : CM (complete main)
    Format settings, Endianness : Big
    Codec ID : A_AC3
    Duration : 1h 52mn
    Bit rate mode : Constant
    Bit rate : 384 Kbps
    Channel count : 2 channels
    Channel positions : Front: L R
    Sampling rate : 48.0 KHz
    Bit depth : 16 bits
    Compression mode : Lossy
    Stream size : 308 MiB (3%)
    Title : dub line
    Language : Russian
    Default : Yes
    Forced : No

    Audio #2
    ID : 3
    Format : DTS
    Format/Info : Digital Theater Systems
    Mode : 16
    Format settings, Endianness : Big
    Codec ID : A_DTS
    Duration : 1h 52mn
    Bit rate mode : Constant
    Bit rate : 1 509 Kbps
    Channel count : 6 channels
    Channel positions : Front: L C R, Side: L R, LFE
    Sampling rate : 48.0 KHz
    Bit depth : 24 bits
    Compression mode : Lossy
    Stream size : 1.18 GiB (11%)
    Language : English
    Default : No
    Forced : No

    Text
    ID : 4
    Format : UTF-8
    Codec ID : S_TEXT/UTF8
    Codec ID/Info : UTF-8 Plain Text
    Title : rus forsed
    Language : Russian
    Default : Yes
    Forced : No

    Menu
    00:00:00.000 : en:Prologue
    00:06:13.665 : en:The Nine Realms At Peace
    00:13:05.535 : en:Strange Happenings In London
    00:18:40.995 : en:The Aether Awakens
    00:24:56.829 : en:Welcome To Asgard
    00:29:07.663 : en:The Last Of The Kursed
    00:41:33.366 : en:Attack On Asgard
    00:49:40.227 : en:We Are Not Immortal
    00:55:56.144 : en:Desperate Times
    01:00:08.897 : en:Escape From Asgard
    01:08:12.672 : en:Brothers In Arms
    01:12:39.897 : en:Return To The Dark World
    01:21:34.473 : en:Follow The Signs
    01:26:22.094 : en:Thor vs. Malekith vs. The Convergence
    01:33:58.800 : en:The Aether Unleashed
    01:38:31.656 : en:Born To Be A King
    01:41:49.520 : en:End Credits




    Размер скачиваемого торрента: 10.82 GB (11618102299 Bytes)

    Тор 2: Царство тьмы / Thor: The Dark World (2013) BDRip 1080р | 3D-Video | Half OverUnder скачать через торрент бесплатно
    загрузка...
    Рейтинг →
     (голосов: 1, оценка 4/5, голосовать можно 1 раз )

    Другие торренты по теме:

  • Тор / Thor (2011) BDRip-AVC | iPad торрент скачать бесплатно
  • Тор: Царство тьмы / Thor: The Dark World (2013) HD | Трейлер торрент скачать бесплатно
  • Тор / Thor (2011) BDRip 720p от HQ-ViDEO торрент скачать бесплатно
  • Тор 2 Царство тьмы (2013) торрент скачать бесплатно
  • Тор 2: Царство тьмы / Thor: The Dark World (2013) DCPrip | 3D-Video | Трейлер скачать через торрент бесплатно
  • Тор 2: Царство тьмы / Thor: The Dark World (2013) HDTVRip 1080p | Трейлер скачать через торрент бесплатно
  • Тор 2: Царство тьмы / Thor: The Dark World (2013) TS торрент скачать бесплатно
  • Тор 2: Царство тьмы / Thor: The Dark World (2013) WEBRip-AVC | Звук с TS скачать через торрент бесплатно


    • Комментарии (0):

      Информация

      Информация

        Посетители, находящиеся в группе Гости, не могут оставлять комментарии в данной новости.

        ↓ Меню



        ↓ Опрос

        А Вы добавили сайт в закладки?
        Да
        Не


        Top 10 за неделю (Фильмы)