.
Авторизация | Регистрация
» » Короткий срок 12 / Short Term 12 (2013) Blu-Ray Remux 1080p от NovaLan скачать через торрент бесплатно




    Короткий срок 12 / Short Term 12 (2013) Blu-Ray Remux 1080p от NovaLan скачать через торрент бесплатно

    Опубликовал: Админ | Дата: 27-02-2015, 11:10 | Просмотров: 223



    Русское название: Короткий срок 12
    Русское название в мировом прокате: Short Term 12
    Создали в: 2013
    Категория жанра: Драма
    Главный режиссер: Дестин Креттон
    Актеры: Бри Ларсон, Джон Галлахер мл., Стефани Беатриз, Кейтлин Девер, Рами Малек, Алекс Кэллоуэй, Кевин Эрнандез, Лидия Дю Во, Лейкит Стэнфилд, Франц Тернер
    Сюжет фильма:
    Грейс - молодая сотрудница медицинского учреждения, руководящая отделением для трудных подростков. Ее жизнь меняется в наблюдениях за новой группой, ведь у нее тоже когда-то было тяжелое прошлое…


    Снималось в: США, Animal Kingdom, Traction Media
    Время просмотра: 01:36:49
    Перевод текста: Любительский одноголосый (Doctor Joker) присутствует ненормативная лексика!

    Кодек для видео: H.264
    Качество фильма: Blu-Ray Remux 1080p
    Информация о видео: MPEG-4 AVC, 24.5 Мбит/с, 1920x1080, 23.976 кадр/с
    Информация о звуке: Русский (AC3, 6 ch, 448 Кбит/с), английский (DTS-MA, 6 ch, 3019 Кбит/с)
    Субтитры: Русские, английские, французские, испанские

    Инфо-файл

    Полное имя : E:Раздачи_EShort.Term.12.2013.BDRemux.1080p.NovaLan.mkv
    Формат : Matroska
    Версия формата : Version 4 / Version 2
    Размер файла : 19,3 Гбайт
    Продолжительность : 1 ч. 36 м.
    Режим общего битрейта : Переменный
    Общий поток : 28,6 Мбит/сек
    Название фильма : Short.Term.12.2013.NovaLan
    Дата кодирования : UTC 2014-02-06 16:54:04
    Программа кодирования : mkvmerge v6.7.0 (;Back to the Ground;) 64bit built on Jan 8 2014 15:10:52
    Библиотека кодирования : libebml v1.3.0 libmatroska v1.4.1

    Видео
    Идентификатор : 1
    Формат : AVC
    Формат/Информация : Advanced Video Codec
    Профиль формата : High@L4.1
    Параметр CABAC формата : Да
    Параметр ReFrames формата : 4 кадра
    Идентификатор кодека : V_MPEG4/ISO/AVC
    Продолжительность : 1 ч. 36 м.
    Вид битрейта : Переменный
    Битрейт : 24,5 Мбит/сек
    Максимальный битрейт : 37,0 Мбит/сек
    Ширина : 1920 пикселей
    Высота : 1080 пикселей
    Соотношение сторон : 16:9
    Частота кадров : 23,976 кадра/сек
    Цветовое пространство : YUV
    Субдискретизация насыщенности : 4:2:0
    Битовая глубина : 8 бит
    Тип развёртки : Прогрессивная
    Бит/(Пиксели*Кадры) : 0.494
    Размер потока : 16,6 Гбайт (86%)
    Заголовок : Short.Term.12.2013.NovaLan
    Default : Да
    Forced : Нет

    Аудио #1
    Идентификатор : 2
    Формат : AC-3
    Формат/Информация : Audio Coding 3
    Расширение режима : CM (complete main)
    Параметр Endianness формата : Big
    Идентификатор кодека : A_AC3
    Продолжительность : 1 ч. 36 м.
    Вид битрейта : Постоянный
    Битрейт : 448 Кбит/сек
    Каналы : 6 каналов
    Расположение каналов : Front: L C R, Side: L R, LFE
    Частота : 48,0 КГц
    Битовая глубина : 16 бит
    Метод сжатия : С потерями
    Размер потока : 310 Мбайт (2%)
    Язык : Russian
    Default : Да
    Forced : Нет

    Аудио #2
    Идентификатор : 3
    Формат : DTS
    Формат/Информация : Digital Theater Systems
    Профиль формата : MA / Core
    Идентификатор кодека : A_DTS
    Продолжительность : 1 ч. 36 м.
    Вид битрейта : Переменный
    Битрейт : 3019 Кбит/сек / 1510 Кбит/сек
    Каналы : 6 каналов
    Расположение каналов : Front: L C R, Side: L R, LFE
    Частота : 48,0 КГц
    Битовая глубина : 24 бит
    Метод сжатия : Без потерь / Lossy
    Язык : English
    Default : Нет
    Forced : Нет

    Текст #1
    Идентификатор : 4
    Формат : PGS
    Режим смешивания : zlib
    Идентификатор кодека : S_HDMV/PGS
    Идентификатор кодека/Информация : The same subtitle format used on BDs/HD-DVDs
    Язык : Russian
    Default : Да
    Forced : Нет

    Текст #2
    Идентификатор : 5
    Формат : PGS
    Режим смешивания : zlib
    Идентификатор кодека : S_HDMV/PGS
    Идентификатор кодека/Информация : The same subtitle format used on BDs/HD-DVDs
    Язык : English
    Default : Нет
    Forced : Нет

    Текст #3
    Идентификатор : 6
    Формат : PGS
    Режим смешивания : zlib
    Идентификатор кодека : S_HDMV/PGS
    Идентификатор кодека/Информация : The same subtitle format used on BDs/HD-DVDs
    Язык : French
    Default : Нет
    Forced : Нет

    Текст #4
    Идентификатор : 7
    Формат : PGS
    Режим смешивания : zlib
    Идентификатор кодека : S_HDMV/PGS
    Идентификатор кодека/Информация : The same subtitle format used on BDs/HD-DVDs
    Язык : Spanish
    Default : Нет
    Forced : Нет

    Меню
    00:00:00.000 : en:Chapter 1
    00:06:12.246 : en:Chapter 2
    00:14:06.971 : en:Chapter 3
    00:22:00.861 : en:Chapter 4
    00:31:55.496 : en:Chapter 5
    00:40:02.190 : en:Chapter 6
    00:49:30.634 : en:Chapter 7
    00:59:36.572 : en:Chapter 8
    01:08:05.289 : en:Chapter 9
    01:17:39.363 : en:Chapter 10
    01:25:47.183 : en:Chapter 11
    01:33:02.994 : en:Chapter 12

    Релиз группа NovaLan
    Автор сборки Sergei7721






    Релиз подготовил:


    Залил: Sergei7721
    Размер скачиваемого торрента: 19.33 GB (20751513935 Bytes)

    Короткий срок 12 / Short Term 12 (2013) Blu-Ray Remux 1080p от NovaLan скачать через торрент бесплатно
    загрузка...
    Рейтинг →
     (голосов: 1, оценка 4/5, голосовать можно 1 раз )

    Другие торренты по теме:

  • Короткий срок 12 / Short Term 12 (2013) HDRip | L1 скачать через торрент бесплатно
  • Короткий срок 12 / Лагерь для подростков №12 / Short Term 12 (2013) BDRip-AVC от R.G.TorrBy | А. Матвеев торрент скачать бесплатно
  • Короткий срок 12 / Short Term 12 (2013) BDRip 720p от Leonardo and Scarabey | А. Матвеев скачать через торрент бесплатно
  • Короткий срок 12 / Short Term 12 (2013) HDRip-AVC от Leo.pard | А. Матвеев скачать через торрент бесплатно
  • Короткий срок 12 / Short Term 12 (2013) BDRip 1080p от CINEMANIA | P, A скачать через торрент бесплатно
  • Короткий срок 12 / Short Term 12 (2013) BDRip 720p от CINEMANIA | P, A скачать через торрент бесплатно
  • Короткий срок 12 / Short Term 12 (2013) HDRip | P скачать через торрент бесплатно
  • Короткий срок 12 / Short Term 12 (2013) BDRip-AVC от ExKinoRay | Р, Матвеев скачать через торрент бесплатно


    • Комментарии (0):

      Информация

      Информация

        Посетители, находящиеся в группе Гости, не могут оставлять комментарии в данной новости.

        ↓ Меню



        ↓ Опрос

        А Вы добавили сайт в закладки?
        Да
        Не


        Top 10 за неделю (Фильмы)