.
Авторизация | Регистрация
Хочешь лучшие торренты? Добавь свой email!
Добавить
» » Клетка для пташек / Птичья клетка / The Birdcage (1996) BDRemux 1080p от MediaClub скачать через торрент бесплатно




    Клетка для пташек / Птичья клетка / The Birdcage (1996) BDRemux 1080p от MediaClub скачать через торрент бесплатно

    Опубликовал: Админ | Дата: 27-02-2015, 11:10 | Просмотров: 315



    Детально о кино
    Русское название: Клетка для пташек (Птичья клетка)
    Русское название в мировом прокате: The Birdcage
    Создали в: 1996
    Категория жанра: Комедия
    Главный режиссер: Майк Николс
    Актеры: Робин Уильямс, Натан Лэйн, Джин Хэкмен, Дайэнн Уист, Дэн Футтерман, Калиста Флокхарт, Хэнк Азария, Кристин Барански, Том МакГоуэн, Грант Хеслов

    Сюжет: Пара немолодых уже геев, Арманд и Альберт, живут жизнью, с их точки зрения, идеальной. Они с успехом содержат популярный гей-клуб в центре Майами. Но их уютное спокойствие внезапно сотрясает возвращение сына Арманда, который собирается жениться на дочери ультраконсервативного сенатора Кили. Мало того, сенатор с женой уже в пути, чтобы успеть к ужину, за которым и должно состояться их знакомство с мистером и миссис Идеальная Семья. Смогут ли Арманд и Альберт обвести их вокруг пальца? Миленькое представление ожидает застойного консерватора.




    Снималось в: США
    Киностудия: Metro-Goldwyn-Mayer
    Время просмотра: 01:59:13
    Перевод текста: Дублированный, профессиональный многоголосый, профессиональный двухголосый, авторский одноголосый

    Файл
    Качество фильма: Blu-ray Remux 1080p
    Информация о видео: MPEG-4 AVC, 29920 Кбит/с, 1920x1080, 23.976 кадр/с
    Информация о звуке #1: Русский (AC3, 6 ch, 384 Кбит/с) / Профессиональный многоголосый (НТВ )
    Информация о звуке #2: Русский (AC3, 2 ch, 192 Кбит/с) / Дублированный (Варус Видео)
    Информация о звуке #3: Русский (AC3, 2 ch, 192 Кбит/с) / Профессиональный даухголосый (Союз Видео)
    Информация о звуке #4: Русский (AC3, 6 ch, 384 Кбит/с) / Авторский одноголосый (П. Карцев)
    Информация о звуке #5: Английский (DTS-HD MA, 6 ch, 3940 Кбит/с)
    Субтитры: Русские, английские

    Скриншоты для ознакомления


    MI
    Общее
    Уникальный идентификатор : 243596461091889849604050625086464727398 (0xB742F8CCE3AB37F0B47FD17D89041966)
    Полное имя : D:Mои раздачиThe.Birdcage.1996.BDRemux.1080p-MediaClub.mkv
    Формат : Matroska
    Версия формата : Version 4 / Version 2
    Размер файла : 29,2 Гбайт
    Продолжительность : 1 ч. 59 м.
    Режим общего битрейта : Переменный
    Общий поток : 35,0 Мбит/сек
    Название фильма : -=MediaClub-kaspr=-
    Дата кодирования : UTC 2014-02-06 11:34:43
    Программа кодирования : mkvmerge v6.1.0 (;Old Devil;) built on Mar 4 2013 09:10:42
    Библиотека кодирования : libebml v1.3.0 libmatroska v1.4.0

    Видео
    Идентификатор : 1
    Формат : AVC
    Формат/Информация : Advanced Video Codec
    Профиль формата : High@L4.1
    Параметр CABAC формата : Да
    Параметр ReFrames формата : 2 кадра
    Параметр GOP формата : M=1, N=10
    Идентификатор кодека : V_MPEG4/ISO/AVC
    Продолжительность : 1 ч. 59 м.
    Вид битрейта : Переменный
    Ширина : 1920 пикселей
    Высота : 1080 пикселей
    Соотношение сторон : 16:9
    Режим частоты кадров : Постоянный
    Частота кадров : 23,976 кадра/сек
    Цветовое пространство : YUV
    Субдискретизация насыщенности : 4:2:0
    Битовая глубина : 8 бит
    Тип развёртки : Прогрессивная
    Заголовок : -=MediaClub-kaspr=-
    Default : Да
    Forced : Да

    Аудио #1
    Идентификатор : 2
    Формат : AC-3
    Формат/Информация : Audio Coding 3
    Расширение режима : CM (complete main)
    Параметр Endianness формата : Big
    Идентификатор кодека : A_AC3
    Продолжительность : 1 ч. 59 м.
    Вид битрейта : Постоянный
    Битрейт : 384 Кбит/сек
    Каналы : 6 каналов
    Расположение каналов : Front: L C R, Side: L R, LFE
    Частота : 48,0 КГц
    Битовая глубина : 16 бит
    Метод сжатия : С потерями
    Размер потока : 327 Мбайт (1%)
    Заголовок : NTV
    Язык : Russian
    Default : Да
    Forced : Да

    Аудио #2
    Идентификатор : 3
    Формат : AC-3
    Формат/Информация : Audio Coding 3
    Расширение режима : CM (complete main)
    Параметр Endianness формата : Big
    Идентификатор кодека : A_AC3
    Продолжительность : 1 ч. 59 м.
    Вид битрейта : Постоянный
    Битрейт : 192 Кбит/сек
    Каналы : 2 канала
    Расположение каналов : Front: L R
    Частота : 48,0 КГц
    Битовая глубина : 16 бит
    Метод сжатия : С потерями
    Размер потока : 164 Мбайт (1%)
    Заголовок : Dub
    Язык : Russian
    Default : Нет
    Forced : Нет

    Аудио #3
    Идентификатор : 4
    Формат : AC-3
    Формат/Информация : Audio Coding 3
    Расширение режима : CM (complete main)
    Параметр Endianness формата : Big
    Идентификатор кодека : A_AC3
    Продолжительность : 1 ч. 59 м.
    Вид битрейта : Постоянный
    Битрейт : 192 Кбит/сек
    Каналы : 2 канала
    Расположение каналов : Front: L R
    Частота : 48,0 КГц
    Битовая глубина : 16 бит
    Метод сжатия : С потерями
    Размер потока : 164 Мбайт (1%)
    Заголовок : Soyuz Video
    Язык : Russian
    Default : Нет
    Forced : Нет

    Аудио #4
    Идентификатор : 5
    Формат : AC-3
    Формат/Информация : Audio Coding 3
    Расширение режима : CM (complete main)
    Параметр Endianness формата : Big
    Идентификатор кодека : A_AC3
    Продолжительность : 1 ч. 59 м.
    Вид битрейта : Постоянный
    Битрейт : 384 Кбит/сек
    Каналы : 6 каналов
    Расположение каналов : Front: L C R, Side: L R, LFE
    Частота : 48,0 КГц
    Битовая глубина : 16 бит
    Метод сжатия : С потерями
    Размер потока : 327 Мбайт (1%)
    Заголовок : Karcev
    Язык : Russian
    Default : Нет
    Forced : Нет

    Аудио #5
    Идентификатор : 6
    Формат : DTS
    Формат/Информация : Digital Theater Systems
    Профиль формата : MA / Core
    Режим : 16
    Параметр Endianness формата : Big
    Идентификатор кодека : A_DTS
    Продолжительность : 1 ч. 59 м.
    Вид битрейта : Переменный
    Битрейт : Неизвестно / 1509 Кбит/сек
    Каналы : 6 каналов
    Расположение каналов : Front: L C R, Side: L R, LFE
    Частота : 48,0 КГц
    Битовая глубина : 24 бит
    Метод сжатия : Без потерь / Lossy
    Язык : English
    Default : Нет
    Forced : Нет

    Текст #1
    Идентификатор : 7
    Формат : UTF-8
    Идентификатор кодека : S_TEXT/UTF8
    Идентификатор кодека/Информация : UTF-8 Plain Text
    Язык : Russian
    Default : Нет
    Forced : Нет

    Текст #2
    Идентификатор : 8
    Формат : UTF-8
    Идентификатор кодека : S_TEXT/UTF8
    Идентификатор кодека/Информация : UTF-8 Plain Text
    Заголовок : SDH
    Язык : English
    Default : Нет
    Forced : Нет

    Меню
    00:00:00.000 : en:Chapter 01
    00:05:09.600 : en:Chapter 02
    00:10:55.196 : en:Chapter 03
    00:14:02.258 : en:Chapter 04
    00:17:36.764 : en:Chapter 05
    00:21:01.885 : en:Chapter 06
    00:24:55.118 : en:Chapter 07
    00:30:39.671 : en:Chapter 08
    00:34:14.969 : en:Chapter 09
    00:38:13.165 : en:Chapter 10
    00:41:31.697 : en:Chapter 11
    00:44:09.271 : en:Chapter 12
    00:47:51.285 : en:Chapter 13
    00:54:58.753 : en:Chapter 14
    01:01:43.408 : en:Chapter 15
    01:05:51.447 : en:Chapter 16
    01:09:24.285 : en:Chapter 17
    01:15:02.706 : en:Chapter 18
    01:24:31.858 : en:Chapter 19
    01:31:33.529 : en:Chapter 20
    01:42:52.166 : en:Chapter 21
    01:47:43.206 : en:Chapter 22
    01:50:52.187 : en:Chapter 23
    01:53:57.372 : en:Chapter 24


    Релиз: |
    Залил: kaspr
    Размер скачиваемого торрента: 29.16 GB (31310479449 Bytes)

    Клетка для пташек / Птичья клетка / The Birdcage (1996) BDRemux 1080p от MediaClub скачать через торрент бесплатно
    загрузка...
    Рейтинг →
     (голосов: 1, оценка 3/5, голосовать можно 1 раз )

    Другие торренты по теме:

  • Клетка для пташек / Птичья клетка / The Birdcage (1996) BDRip 720p от MediaClub скачать через торрент бесплатно
  • Клетка для пташек / Птичья клетка / The Birdcage (1996) BDRip от HQCLUB скачать через торрент бесплатно
  • Клетка для кроликов / Забор от кроликов / Rabbit-Proof Fence (2002) DVDRip от FilmRus | P
  • Клетка для чудаков 3 - Свадьба / La Cage Aux Folles 3 - Elles Se Marient (1985) DVDRip от Brazzass скачать через торрент бесплатно
  • Клетка для чудаков 2 / La Cage Aux Folles 2 (1980) DVDRip от Brazzass скачать через торрент бесплатно
  • Клетка для кроликов / Rabbit-Proof Fence (2002) HDRip от Scarabey | Р
  • Большая клетка для птиц / The Big Bird Cage (1972) BDRip | A
  • Клетка для канареек (1983) DVDRip


    • Комментарии (0):

      Информация

      Информация

        Посетители, находящиеся в группе Гости, не могут оставлять комментарии в данной новости.

        ↓ Меню



        ↓ Опрос

        А Вы добавили сайт в закладки?
        Да
        Не


        Top 10 за месяц (Фильмы)