.
Авторизация | Регистрация
Хочешь лучшие торренты? Добавь свой email!
Добавить
» » Поезд на Юму / 3:10 to Yuma (2007) BDRip-AVC от 0ptimus | D, P2, A скачать через торрент бесплатно




    Поезд на Юму / 3:10 to Yuma (2007) BDRip-AVC от 0ptimus | D, P2, A скачать через торрент бесплатно

    Опубликовал: Админ | Дата: 27-02-2015, 11:10 | Просмотров: 219


    Поезд на Юму
    | 3:10 to Yuma |


    Детально о кино
    Русское название: Поезд на Юму
    Русское название в мировом прокате: 3:10 to Yuma
    Создали в: 2007
    Категория жанра: Боевик, драма, криминал, вестерн
    Главный режиссер: Джеймс Мэнголд
    Актеры: Расселл Кроу, Кристиан Бэйл, Питер Фонда, Гретхен Мол, Бен Фостер, Алан Тьюдик, Логан Лерман, Винесса Шоу, Бенджамин Петри, Кевин Дюранд, Ленни Лофтин, Люс Рэйнс, Даллас Робертс, Марк Уоллес, Жерар Суон, Крис Браунинг, Джонни Витуорт

    Сюжет фильма:
    После ареста известного бандита Бена Уэйда, его банда продолжает угрожать местным жителям. Ветеран Гражданской войны и владелец небольшого ранчо Дэн Эванс соглашается тайно доставить Уэйда в ближайший город с железнодорожной станцией, чтобы того отправили на поезде в форт Юма. Как только они останавливаются в гостинице, становится очевидным, что тайна раскрыта, и за обоими начинается охота…



    Снималось в: США
    Киностудия: Lionsgate, Tree Line Films, Relativity Media
    Время просмотра: 02:02:30
    Перевод текста: Дублированный, профессиональный двухголосый, авторский одноголосый

    Файл
    Кодек для видео: h264
    Качество фильма: BDRip-AVC
    Информация о видео: 2711 Кбит/с, 1024x426, 23.976 кадр/с

    Информация о звуке:
    • №1: Русский (AC3, 6 ch, 384 Кбит/с) Дублированный
    • №2: Английский (AC3, 6 ch 384 Кбит/с)
    Отдельно:
    • №3: Русский (AC3, 6 ch, 384 Кбит/с) Профессиональный двухголосый Пётр Гланц и Инна Королёва
    • №4: Русский (AC3, 6 ch, 384 Кбит/с) Авторский одноголосый Юрий Живов
    • №5: Русский (AC3, 6 ch, 384 Кбит/с) Авторский одноголосый Юрий Немахов

    Субтитры: Русские, английские

    MediaInfo

    -----------------------------------------------------------------------
    x264 info: frame I:1413 Avg QP:16.86 size: 64404
    x264 info: frame P:37431 Avg QP:19.23 size: 25251
    x264 info: frame B:137393 Avg QP:20.27 size: 10534
    -----------------------------------------------------------------------

    Полное имя : F:3-10.to.Yuma.2007.x264.BDRip-AVC.0ptimus3-10.to.Yuma.2007.x264.BDRip-AVC.0ptimus.mkv
    Формат : Matroska
    Версия формата : Version 2
    Размер файла : 2,97 Гбайт
    Продолжительность : 2 ч. 2 м.
    Общий поток : 3473 Кбит/сек
    Название фильма : Поезд на Юму | 3:10 to Yuma 2007 -= BDRip (AVC) by 0ptimus =-
    Дата кодирования : UTC 2014-02-06 06:54:27
    Программа кодирования : mkvmerge v6.6.0 (;The Edge Of The In Between;) built on Dec 1 2013 17:55:00
    Библиотека кодирования : libebml v1.3.0 libmatroska v1.4.1

    Видео
    Идентификатор : 1
    Формат : AVC
    Формат/Информация : Advanced Video Codec
    Профиль формата : High@L4.1
    Параметр CABAC формата : Да
    Параметр ReFrames формата : 9 кадров
    Идентификатор кодека : V_MPEG4/ISO/AVC
    Продолжительность : 2 ч. 2 м.
    Битрейт : 2711 Кбит/сек
    Ширина : 1024 пикселя
    Высота : 426 пикселей
    Соотношение сторон : 2,40:1
    Режим частоты кадров : Постоянный
    Частота кадров : 23,976 кадра/сек
    Цветовое пространство : YUV
    Субдискретизация насыщенности : 4:2:0
    Битовая глубина : 8 бит
    Тип развёртки : Прогрессивная
    Бит/(Пиксели*Кадры) : 0.259
    Размер потока : 2,26 Гбайт (76%)
    Заголовок : Rip by 0ptimus
    Библиотека кодирования : x264 core 125 r2208 d9d2288
    Настройки программы : cabac=1 / ref=9 / deblock=1:-2:-1 / analyse=0x3:0x113 / me=umh / subme=11 / psy=1 / psy_rd=1.00:0.20 / mixed_ref=1 / me_range=32 / chroma_me=1 / trellis=2 / 8x8dct=1 / cqm=0 / deadzone=21,11 / fast_pskip=0 / chroma_qp_offset=-3 / threads=4 / lookahead_threads=1 / sliced_threads=0 / nr=0 / decimate=0 / interlaced=0 / bluray_compat=0 / constrained_intra=0 / bframes=11 / b_pyramid=2 / b_adapt=2 / b_bias=0 / direct=3 / weightb=1 / open_gop=0 / weightp=2 / keyint=240 / keyint_min=23 / scenecut=40 / intra_refresh=0 / rc_lookahead=40 / rc=2pass / mbtree=0 / bitrate=2711 / ratetol=1.0 / qcomp=0.60 / qpmin=0 / qpmax=69 / qpstep=4 / cplxblur=20.0 / qblur=0.5 / vbv_maxrate=50000 / vbv_bufsize=50000 / nal_hrd=none / ip_ratio=1.40 / pb_ratio=1.30 / aq=1:1.00
    Язык : English
    Default : Да
    Forced : Да

    Аудио #1
    Идентификатор : 2
    Формат : AC-3
    Формат/Информация : Audio Coding 3
    Расширение режима : CM (complete main)
    Параметр Endianness формата : Big
    Идентификатор кодека : A_AC3
    Продолжительность : 2 ч. 2 м.
    Вид битрейта : Постоянный
    Битрейт : 384 Кбит/сек
    Каналы : 6 каналов
    Расположение каналов : Front: L C R, Side: L R, LFE
    Частота : 48,0 КГц
    Битовая глубина : 16 бит
    Метод сжатия : С потерями
    Размер потока : 336 Мбайт (11%)
    Заголовок : Дублированный AC3 5.1 @ 384 kbps
    Язык : Russian
    Default : Да
    Forced : Да

    Аудио #2
    Идентификатор : 3
    Формат : AC-3
    Формат/Информация : Audio Coding 3
    Расширение режима : CM (complete main)
    Параметр Endianness формата : Big
    Идентификатор кодека : A_AC3
    Продолжительность : 2 ч. 2 м.
    Вид битрейта : Постоянный
    Битрейт : 384 Кбит/сек
    Каналы : 6 каналов
    Расположение каналов : Front: L C R, Side: L R, LFE
    Частота : 48,0 КГц
    Битовая глубина : 16 бит
    Метод сжатия : С потерями
    Размер потока : 336 Мбайт (11%)
    Заголовок : AC3 5.1 @ 384 kbps
    Язык : English
    Default : Нет
    Forced : Нет

    Текст #1
    Идентификатор : 4
    Формат : UTF-8
    Идентификатор кодека : S_TEXT/UTF8
    Идентификатор кодека/Информация : UTF-8 Plain Text
    Язык : Russian
    Default : Нет
    Forced : Нет

    Текст #2
    Идентификатор : 5
    Формат : UTF-8
    Идентификатор кодека : S_TEXT/UTF8
    Идентификатор кодека/Информация : UTF-8 Plain Text
    Язык : English
    Default : Нет
    Forced : Нет

    Меню
    00:00:00.000 : en:Late Night Ambush
    00:07:32.285 : en:Making Things Right
    00:14:11.475 : en:Here We Go
    00:19:03.934 : en:He;s Fast
    00:30:23.446 : en:Needs Attention
    00:36:40.698 : en:I Want to Talk
    00:45:13.794 : en:Table Manners
    00:51:58.031 : en:Getting By
    00:57:35.285 : en:Digging Graves
    01:05:47.026 : en:Choosing Paths
    01:16:53.859 : en:Prisoner Dispute
    01:24:57.967 : en:New Offer
    01:35:10.371 : en:Not All Bad
    01:43:55.896 : en:Sharp Shooting
    01:50:31.583 : en:Making Confessions
    01:54:52.135 : en:Special Delivery/Train to Yuma
    Скриншоты для ознакомления



    Релиз подготовил:
    Размер скачиваемого торрента: 3.96 GB (4249305988 Bytes)

    Поезд на Юму / 3:10 to Yuma (2007) BDRip-AVC от 0ptimus | D, P2, A скачать через торрент бесплатно
    загрузка...
    Рейтинг →
     (голосов: 1, оценка 5/5, голосовать можно 1 раз )

    Другие торренты по теме:

  • Поезд на Юму / В 15:10 на Юму / 3:10 to Yuma (2007) HDRip от Scarabey | Р2 скачать через торрент бесплатно
  • Поезд на Юму / 3:10 to Yuma (2007) BDRip-AVC
  • Поезд на Дарджилинг. Отчаянные путешественники / The Darjeeling Limited (2007) BDRip 720p от DHT-Movies
  • Поезд на Юму / 3:10 to Yuma (2007) HDRip-AVC | iPhone
  • Поезд на Юму / 3:10 to Yuma (2007) BD-Remux 1080p скачать через торрент бесплатно
  • Поезд на Дарджилинг. Отчаянные путешественники / The Darjeeling Limited (2007) BDRip-AVC скачать через торрент бесплатно
  • Поезд на север (2013) HDTVRip 720p от MediaClub
  • Поезд на Юму / 3:10 to Yuma / 2007 / ДБ, ПМ, СТ / DVD-9


    • Комментарии (0):

      Информация

      Информация

        Посетители, находящиеся в группе Гости, не могут оставлять комментарии в данной новости.

        ↓ Меню



        ↓ Опрос

        А Вы добавили сайт в закладки?
        Да
        Не


        Top 10 за месяц (Фильмы)