.
Авторизация | Регистрация
» » Дикие народы Курдистана / Durchs wilde Kurdistan (1965) BDRip by msltel | P скачать через торрент бесплатно




    Дикие народы Курдистана / Durchs wilde Kurdistan (1965) BDRip by msltel | P скачать через торрент бесплатно

    Опубликовал: Админ | Дата: 27-02-2015, 11:10 | Просмотров: 237



    Русское название: Дикие народы Курдистана
    Русское название в мировом прокате: Durchs wilde Kurdistan
    Создали в: 1965
    Категория жанра: Приключения
    Снималось в: Испания, Германия (ФРГ), Balc?zar Producciones Cinematogr?ficas S.A., CCC Filmkunst GmbH
    Главный режиссер: Франц Йозеф Готлиб
    Актеры: Лекс Баркер, Мари Верзини, Ральф Вольтер, Дитер Борше, Крис Хоуланд, Джордже Ненадович, Вернер Петерс, Вольфганг Лукши, Густаво Рохо, Чарльз Фоусет, Глория Камара, Фернандо Санчо, Антонио Иранцо, Хосе Ньето, Майти Маталонга, Курт Вайтцман, Тито Гарсия, Хуан Казалилла, Пабито Алонсо, Мило Куэсада, Франциско Браво, Антонио Касас, Хосе Мария Каффарель, Сорайя Хусейн

    Сюжет фильма: Фильм о приключениях Кара Бен Немши по роману Карла Мая. Властолюбивый магараджа из Моссула похищает сына курдского шейха Мухаммеда. На поиски мальчика отправляются любитель приключений Кара Бен Немши и его друг Хадши Халиф Омар. По дороге они встречают странноватого лорда Линдсея и его слугу.

    Качество фильма: BDRip
    Информация о видео: XviD, 1899 Кбит/с, 720x304
    Информация о звуке: Русский, немецкий (AC3, 2 ch, 192 Кбит/с)
    Размер скачиваемого торрента: 1.65 ГБ
    Время просмотра: 01:42:41
    Перевод текста: Профессиональный многоголосый

    Исходник: ЗЕВС911 (Кинозал)

    Сравнение с исходником



    MediaInfo
    Общее
    Полное имя : E:VideoDikie narody Kurdistana.1965.XviD.BDRip.avi
    Формат : AVI
    Формат/Информация : Audio Video Interleave
    Размер файла : 1,65 Гбайт
    Продолжительность : 1 ч. 42 м.
    Общий поток : 2297 Кбит/сек
    Программа кодирования : VirtualDubMod 1.5.10.2 (build 2540/release)
    Библиотека кодирования : VirtualDubMod build 2540/release

    Видео
    Идентификатор : 0
    Формат : MPEG-4 Visual
    Профиль формата : Advanced Simple@L5
    Параметр BVOP формата : 1
    Параметр QPel формата : Нет
    Параметр GMC формата : Без точки перехода
    Параметр матрицы формата : Default (H.263)
    Режим смешивания : Сжатый битовый поток
    Идентификатор кодека : XVID
    Идентификатор кодека/Подсказка : XviD
    Продолжительность : 1 ч. 42 м.
    Битрейт : 1899 Кбит/сек
    Ширина : 720 пикселей
    Высота : 304 пикселя
    Соотношение сторон : 2,35:1
    Частота кадров : 23,976 кадра/сек
    Цветовое пространство : YUV
    Субдискретизация насыщенности : 4:2:0
    Битовая глубина : 8 бит
    Тип развёртки : Прогрессивная
    Метод сжатия : С потерями
    Бит/(Пиксели*Кадры) : 0.362
    Размер потока : 1,36 Гбайт (83%)
    Библиотека кодирования : XviD 1.2.1 (UTC 2008-12-04)

    Аудио #1
    Идентификатор : 1
    Формат : AC-3
    Формат/Информация : Audio Coding 3
    Профиль формата : Dolby Digital
    Расширение режима : CM (complete main)
    Параметр Endianness формата : Big
    Идентификатор кодека : 2000
    Продолжительность : 1 ч. 42 м.
    Вид битрейта : Постоянный
    Битрейт : 192 Кбит/сек
    Каналы : 2 канала
    Расположение каналов : Front: L R
    Частота : 48,0 КГц
    Битовая глубина : 16 бит
    Метод сжатия : С потерями
    Размер потока : 141 Мбайт (8%)
    Выравнивание : Разделение по промежуткам
    Продолжительность промежутка : 42 мс. (1,00 видеокадр)
    Время предзагрузки промежутка : 500 мс.

    Аудио #2
    Идентификатор : 2
    Формат : AC-3
    Формат/Информация : Audio Coding 3
    Расширение режима : CM (complete main)
    Параметр Endianness формата : Big
    Идентификатор кодека : 2000
    Продолжительность : 1 ч. 42 м.
    Вид битрейта : Постоянный
    Битрейт : 192 Кбит/сек
    Каналы : 2 канала
    Расположение каналов : Front: L R
    Частота : 48,0 КГц
    Битовая глубина : 16 бит
    Метод сжатия : С потерями
    Размер потока : 141 Мбайт (8%)
    Выравнивание : Разделение по промежуткам
    Продолжительность промежутка : 42 мс. (1,00 видеокадр)
    Время предзагрузки промежутка : 500 мс.
    Скриншоты для ознакомления



    Залил: msltel
    Размер скачиваемого торрента: 1.65 GB (1769072640 Bytes)

    Дикие народы Курдистана / Durchs wilde Kurdistan (1965) BDRip by msltel | P скачать через торрент бесплатно
    загрузка...
    Рейтинг →
     (голосов: 1, оценка 3/5, голосовать можно 1 раз )

    Другие торренты по теме:

  • Дикие народы Курдистана / Durchs wilde Kurdistan (1965) BDRip-AVC | P торрент скачать бесплатно
  • Дикие народы Курдистана / Durchs wilde Kurdistan (1965) BDRip 720p by msltel | P торрент скачать бесплатно
  • Дикие народы Курдистана / Durchs wilde Kurdistan (1965) BDRip 1080p by msltel | P торрент скачать бесплатно


    • Комментарии (0):

      Информация

      Информация

        Посетители, находящиеся в группе Гости, не могут оставлять комментарии в данной новости.

        ↓ Меню



        ↓ Опрос

        А Вы добавили сайт в закладки?
        Да
        Не


        Top 10 за неделю (Фильмы)