.
Авторизация | Регистрация
Хочешь лучшие торренты? Добавь свой email!
Добавить
» » Патриот / The Patriot (1998) DVDRip скачать через торрент бесплатно




    Патриот / The Patriot (1998) DVDRip скачать через торрент бесплатно

    Опубликовал: Админ | Дата: 27-02-2015, 11:10 | Просмотров: 535



    Снималось в: США
    Создали в: Interlight, Touchstone Pictures
    Категория жанра: Боевик
    Создали в: 1998

    Время просмотра: 01:30:12


    Перевод текста: Профессиональный (многоголосый, закадровый), профессиональный (двухголосый, закадровый), авторский (закадровый)


    Оригинальная аудиодорожка: Английская

    Главный режиссер: Дин Семлер


    Актеры: Стивен Сигал, Гейлард Сартейн, Л. К. Джонс, Сайлас Уэйр Митчелл, Камилла Белль, Дэн Бин, Дэймон Коллазо, Брэд Лелэнд, Молли МакКлюр, Филип Уинчестер, Бернард О’Коннор, Леонард Маунтин Чиф, Р.Дж Бернс, Роберт Харви, Рон Эндрюс, Джефф Тиллотсон


    Сюжет: Группа террористов похищает новейшее бактериологическое оружие и распространяет смертельный вирус в небольшом городке штата Монтана. Привитая всем членам группировки вакцина не дает нужного эффекта и террористы оказываются на равных со своими жертвами. Только восьмилетняя дочь известного вирусолога и бывшего спецагента МакКларена обладает врожденным иммунитетом к страшному вирусу. Из её крови террористы собираются приготовить спасительную сыворотку. МакКларен вступает в схватку за жизнь единственной дочери и своих земляков.



    Исходник: DVD5 R2

    Тип релиза: DVDRip

    Контейнер: AVI


    Информация о видео: XviD, 1805 Кбит/с, 704х304
    Информация о звуке: Русский, английский (АС3, 2 ch, 192 Кбит/с)

    Перевод

    Аудио#1: Профессиональный многоголосый
    Аудио#2: Профессиональный двухголосый
    Аудио#3: Профессиональный двухголосый
    Аудио#4: Авторский (Ю.Сербин)
    Аудио#5: Английский



    MediaInfo
    Общее
    Полное имя : D:залитьПатриот.avi
    Формат : AVI
    Формат/Информация : Audio Video Interleave
    Размер файла : 1,51 Гбайт
    Продолжительность : 1 ч. 30 м.
    Общий поток : 2399 Кбит/сек
    Программа кодирования : VirtualDubMod 1.5.10.2 (build 2540/release)
    Библиотека кодирования : VirtualDubMod build 2540/release

    Видео
    Идентификатор : 0
    Формат : MPEG-4 Visual
    Профиль формата : Advanced Simple@L5
    Параметр BVOP формата : 2
    Параметр QPel формата : Нет
    Параметр GMC формата : Без точки перехода
    Параметр матрицы формата : Default (MPEG)
    Режим смешивания : Сжатый битовый поток
    Идентификатор кодека : XVID
    Идентификатор кодека/Подсказка : XviD
    Продолжительность : 1 ч. 30 м.
    Битрейт : 1411 Кбит/сек
    Ширина : 704 пикселя
    Высота : 304 пикселя
    Соотношение сторон : 2,35:1
    Частота кадров : 23,976 кадра/сек
    Цветовое пространство : YUV
    Субдискретизация насыщенности : 4:2:0
    Битовая глубина : 8 бит
    Тип развёртки : Прогрессивная
    Метод сжатия : С потерями
    Бит/(Пиксели*Кадры) : 0.275
    Размер потока : 910 Мбайт (59%)
    Библиотека кодирования : XviD 1.2.1 (UTC 2008-12-04)

    Аудио #1
    Идентификатор : 1
    Формат : AC-3
    Формат/Информация : Audio Coding 3
    Расширение режима : CM (complete main)
    Параметр Endianness формата : Big
    Идентификатор кодека : 2000
    Продолжительность : 1 ч. 30 м.
    Вид битрейта : Постоянный
    Битрейт : 192 Кбит/сек
    Каналы : 2 канала
    Расположение каналов : Front: L R
    Частота : 48,0 КГц
    Битовая глубина : 16 бит
    Метод сжатия : С потерями
    Размер потока : 124 Мбайт (8%)
    Выравнивание : Разделение по промежуткам
    Продолжительность промежутка : 42 мс. (1,00 видеокадр)
    Время предзагрузки промежутка : 500 мс.

    Аудио #2
    Идентификатор : 2
    Формат : AC-3
    Формат/Информация : Audio Coding 3
    Расширение режима : CM (complete main)
    Параметр Endianness формата : Big
    Идентификатор кодека : 2000
    Продолжительность : 1 ч. 30 м.
    Вид битрейта : Постоянный
    Битрейт : 192 Кбит/сек
    Каналы : 2 канала
    Расположение каналов : Front: L R
    Частота : 48,0 КГц
    Битовая глубина : 16 бит
    Метод сжатия : С потерями
    Размер потока : 124 Мбайт (8%)
    Выравнивание : Разделение по промежуткам
    Продолжительность промежутка : 42 мс. (1,00 видеокадр)
    Время предзагрузки промежутка : 500 мс.

    Аудио #3
    Идентификатор : 3
    Формат : AC-3
    Формат/Информация : Audio Coding 3
    Расширение режима : CM (complete main)
    Параметр Endianness формата : Big
    Идентификатор кодека : 2000
    Продолжительность : 1 ч. 30 м.
    Вид битрейта : Постоянный
    Битрейт : 192 Кбит/сек
    Каналы : 2 канала
    Расположение каналов : Front: L R
    Частота : 48,0 КГц
    Битовая глубина : 16 бит
    Метод сжатия : С потерями
    Размер потока : 124 Мбайт (8%)
    Выравнивание : Разделение по промежуткам
    Продолжительность промежутка : 42 мс. (1,00 видеокадр)
    Время предзагрузки промежутка : 500 мс.

    Аудио #4
    Идентификатор : 4
    Формат : AC-3
    Формат/Информация : Audio Coding 3
    Расширение режима : CM (complete main)
    Параметр Endianness формата : Big
    Идентификатор кодека : 2000
    Продолжительность : 1 ч. 30 м.
    Вид битрейта : Постоянный
    Битрейт : 192 Кбит/сек
    Каналы : 2 канала
    Расположение каналов : Front: L R
    Частота : 48,0 КГц
    Битовая глубина : 16 бит
    Метод сжатия : С потерями
    Размер потока : 124 Мбайт (8%)
    Выравнивание : Разделение по промежуткам
    Продолжительность промежутка : 42 мс. (1,00 видеокадр)
    Время предзагрузки промежутка : 500 мс.

    Аудио #5
    Идентификатор : 5
    Формат : AC-3
    Формат/Информация : Audio Coding 3
    Расширение режима : CM (complete main)
    Параметр Endianness формата : Big
    Идентификатор кодека : 2000
    Продолжительность : 1 ч. 30 м.
    Вид битрейта : Постоянный
    Битрейт : 192 Кбит/сек
    Каналы : 2 канала
    Расположение каналов : Front: L R
    Частота : 48,0 КГц
    Битовая глубина : 16 бит
    Метод сжатия : С потерями
    Размер потока : 124 Мбайт (8%)
    Выравнивание : Разделение по промежуткам
    Продолжительность промежутка : 42 мс. (1,00 видеокадр)
    Время предзагрузки промежутка : 500 мс.






    Скриншоты для ознакомления


    Автор рипа:
    Залил: YArl
    Размер скачиваемого торрента: 1.51 GB (1623031808 Bytes)

    Патриот / The Patriot (1998) DVDRip скачать через торрент бесплатно
    загрузка...
    Рейтинг →
     (голосов: 1, оценка 5/5, голосовать можно 1 раз )

    Другие торренты по теме:

  • Патриот / The Patriot (2000) BDRip 1080p
  • OST - Патриот / The Patriot (2000) MP3 скачать через торрент бесплатно
  • Право голоса. Патриот живёт в России! (2014) WEBRip
  • Патриот (2009) PC | RePack от R.G. Origami скачать через торрент бесплатно
  • Патриот / The Patriot (2000) BDRip 720p от MediaClub | D, P, A | Расширенная версия / Extended Cut
  • Патриот: ДемократиZация (2006) PC | Repack от R.G. UPG
  • Патриот / The Patriot (2000) BDRip-AVC от New-Team | Расширенная версия скачать через торрент бесплатно
  • Патриот / Patriot (2015) WEBRip 720p | BaibaKo


    • Комментарии (0):

      Информация

      Информация

        Посетители, находящиеся в группе Гости, не могут оставлять комментарии в данной новости.

        ↓ Меню



        ↓ Опрос

        А Вы добавили сайт в закладки?
        Да
        Не


        Top 10 за месяц (Фильмы)