.
Авторизация | Регистрация
Хочешь лучшие торренты? Добавь свой email!
Добавить
» » Тихий дом / Silent House (2011) Blu-Ray Remux 1080p от NovaLan скачать через торрент бесплатно




    Тихий дом / Silent House (2011) Blu-Ray Remux 1080p от NovaLan скачать через торрент бесплатно

    Опубликовал: Админ | Дата: 27-02-2015, 11:10 | Просмотров: 301



    Русское название: Тихий дом
    Русское название в мировом прокате: Silent House
    Создали в: 2011
    Категория жанра: Ужасы, триллер, драма
    Главный режиссер: Крис Кентис, Лора Лау
    Актеры: Элизабет Олсен, Адам Трези, Эрик Шеффер Стивенс, Джулия Чан, Адам Барнетт, Хейли Мерфи
    Сюжет фильма:
    Отец и дочь-тинейджер получили работу по реставрации дома. Они решаются переночевать в старом жилище, а рано с утра приступить к работе. Но все пошло не так, когда девушка ночью стала слышать странные звуки с верхних этажей…


    Снималось в: США, Франция, Elle Driver, Tazora Films
    Время просмотра: 01:25:53
    Перевод текста: Любительский многоголосый (RG Amigos LeX)

    Кодек для видео: H.264
    Качество фильма: Blu-Ray Remux 1080p
    Информация о видео: MPEG-4 AVC, 31.8 Мбит/с, 1920x1080, 23.976 кадр/с
    Информация о звуке: Русский (DTS, 6 ch, 1510 Кбит/с), английский (DTS-MA, 6 ch, 3676 Кбит/с), английский (AC3, 2 ch, 192Кбит/с)
    Субтитры: Русские, английские, французские, испанские

    Инфо-файл

    Полное имя : D:Silent.House.2011.BDRemux.1080p.NovaLan.mkv
    Формат : Matroska
    Версия формата : Version 4 / Version 2
    Размер файла : 21,5 Гбайт
    Продолжительность : 1 ч. 25 м.
    Режим общего битрейта : Переменный
    Общий поток : 35,8 Мбит/сек
    Название фильма : Silent House 2011 - NovaLan
    Дата кодирования : UTC 2014-02-06 08:43:52
    Программа кодирования : mkvmerge v6.7.0 (;Back to the Ground;) 64bit built on Jan 8 2014 15:10:52
    Библиотека кодирования : libebml v1.3.0 libmatroska v1.4.1

    Видео
    Идентификатор : 1
    Формат : AVC
    Формат/Информация : Advanced Video Codec
    Профиль формата : High@L4.1
    Параметр CABAC формата : Да
    Параметр ReFrames формата : 4 кадра
    Параметр GOP формата : M=3, N=12
    Идентификатор кодека : V_MPEG4/ISO/AVC
    Продолжительность : 1 ч. 25 м.
    Вид битрейта : Переменный
    Битрейт : 31,8 Мбит/сек
    Максимальный битрейт : 35,0 Мбит/сек
    Ширина : 1920 пикселей
    Высота : 1080 пикселей
    Соотношение сторон : 16:9
    Частота кадров : 23,976 кадра/сек
    Цветовое пространство : YUV
    Субдискретизация насыщенности : 4:2:0
    Битовая глубина : 8 бит
    Тип развёртки : Прогрессивная
    Бит/(Пиксели*Кадры) : 0.640
    Размер потока : 19,1 Гбайт (89%)
    Заголовок : Silent House 2011 - NovaLan
    Default : Да
    Forced : Нет

    Аудио #1
    Идентификатор : 2
    Формат : DTS
    Формат/Информация : Digital Theater Systems
    Идентификатор кодека : A_DTS
    Продолжительность : 1 ч. 25 м.
    Вид битрейта : Постоянный
    Битрейт : 1510 Кбит/сек
    Каналы : 6 каналов
    Расположение каналов : Front: L C R, Side: L R, LFE
    Частота : 48,0 КГц
    Битовая глубина : 24 бит
    Метод сжатия : С потерями
    Размер потока : 927 Мбайт (4%)
    Язык : Russian
    Default : Да
    Forced : Нет

    Аудио #2
    Идентификатор : 3
    Формат : DTS
    Формат/Информация : Digital Theater Systems
    Профиль формата : MA / Core
    Идентификатор кодека : A_DTS
    Продолжительность : 1 ч. 25 м.
    Вид битрейта : Переменный
    Битрейт : 1576 Кбит/сек / 1510 Кбит/сек
    Каналы : 6 каналов
    Расположение каналов : Front: L C R, Side: L R, LFE
    Частота : 48,0 КГц
    Битовая глубина : 24 бит
    Метод сжатия : Без потерь / Lossy
    Язык : English
    Default : Нет
    Forced : Нет

    Аудио #3
    Идентификатор : 4
    Формат : AC-3
    Формат/Информация : Audio Coding 3
    Профиль формата : Dolby Digital
    Расширение режима : CM (complete main)
    Параметр Endianness формата : Big
    Идентификатор кодека : A_AC3
    Продолжительность : 1 ч. 25 м.
    Вид битрейта : Постоянный
    Битрейт : 192 Кбит/сек
    Каналы : 2 канала
    Расположение каналов : Front: L R
    Частота : 48,0 КГц
    Битовая глубина : 16 бит
    Метод сжатия : С потерями
    Размер потока : 118 Мбайт (1%)
    Язык : English
    Default : Нет
    Forced : Нет

    Текст #1
    Идентификатор : 5
    Формат : PGS
    Режим смешивания : zlib
    Идентификатор кодека : S_HDMV/PGS
    Идентификатор кодека/Информация : The same subtitle format used on BDs/HD-DVDs
    Язык : Russian
    Default : Да
    Forced : Нет

    Текст #2
    Идентификатор : 6
    Формат : PGS
    Режим смешивания : zlib
    Идентификатор кодека : S_HDMV/PGS
    Идентификатор кодека/Информация : The same subtitle format used on BDs/HD-DVDs
    Язык : English
    Default : Нет
    Forced : Нет

    Текст #3
    Идентификатор : 7
    Формат : PGS
    Режим смешивания : zlib
    Идентификатор кодека : S_HDMV/PGS
    Идентификатор кодека/Информация : The same subtitle format used on BDs/HD-DVDs
    Язык : French
    Default : Нет
    Forced : Нет

    Текст #4
    Идентификатор : 8
    Формат : PGS
    Режим смешивания : zlib
    Идентификатор кодека : S_HDMV/PGS
    Идентификатор кодека/Информация : The same subtitle format used on BDs/HD-DVDs
    Язык : Spanish
    Default : Нет
    Forced : Нет

    Меню
    00:00:00.000 : en:Chapter 1
    00:03:11.816 : en:Chapter 2
    00:07:58.435 : en:Chapter 3
    00:11:49.667 : en:Chapter 4
    00:14:40.671 : en:Chapter 5
    00:20:24.347 : en:Chapter 6
    00:24:39.603 : en:Chapter 7
    00:28:50.185 : en:Chapter 8
    00:34:59.554 : en:Chapter 9
    00:41:19.434 : en:Chapter 10
    00:44:14.610 : en:Chapter 11
    00:48:49.050 : en:Chapter 12
    00:51:34.215 : en:Chapter 13
    00:55:29.117 : en:Chapter 14
    00:59:48.710 : en:Chapter 15
    01:05:32.719 : en:Chapter 16
    01:10:12.497 : en:Chapter 17
    01:13:06.671 : en:Chapter 18
    01:16:08.854 : en:Chapter 19
    01:20:41.545 : en:Chapter 20
    01:25:52.939 : en:Chapter 21

    Релиз группа NovaLan
    Автор сборки Sergei7721






    Релиз подготовил:


    Залил: Sergei7721
    Размер скачиваемого торрента: 21.49 GB (23079996598 Bytes)

    Тихий дом / Silent House (2011) Blu-Ray Remux 1080p от NovaLan скачать через торрент бесплатно
    загрузка...
    Рейтинг →
     (голосов: 1, оценка 3/5, голосовать можно 1 раз )

    Другие торренты по теме:

  • OST - Тихий океан / The Pacific (2010) MP3
  • Тихий американец / The Quiet American (2002) BDRip от HQCLUB
  • Тихий, но смертоносный / Silent But Deadly (2011) HDRip | L1 скачать через торрент бесплатно
  • Тихий, но смертоносный / Silent But Deadly (2011) BDRip 720p | L1 скачать через торрент бесплатно
  • Тихий океан (Тихоокеанский фронт) / The Pacific (2010) BDRip 720p от NoLimits-Team скачать через торрент бесплатно
  • Тихий американец / The Quiet American (2001) HDRip от Scarabey | Р
  • Тихий человек / The Quiet Man (1952) BDRip by msltel | P скачать через торрент бесплатно
  • Тихий человек / The Quiet Man (1952) BDRip 720p by msltel | P


    • Комментарии (0):

      Информация

      Информация

        Посетители, находящиеся в группе Гости, не могут оставлять комментарии в данной новости.

        ↓ Меню



        ↓ Опрос

        А Вы добавили сайт в закладки?
        Да
        Не


        Top 10 за месяц (Фильмы)